アットウィキロゴ
ピースサイン
米津玄師

BASIC

Level: 4
BPM: 200
Notes: 157

1
口口口口 |----|
口口口口 |----|
口口口口 |----|
口口口口 |----|
2
口口口口 |①---|
口口①口 |----|
口口口口 |----|
口口口口 |----|
3
口口口口 |①---|
口①口口 |----|
口口口口 |----|
口口口口 |----|
4
口口口口 |①---|
口口①口 |----|
口口口口 |----|
口口口口 |----|
5
口口口口 |①---|
口①口口 |----|
口口口口 |----|
口口口口 |----|
6
口口口口 |①---|
口口①口 |----|
口口口口 |----|
口口口口 |----|
7
口口口口 |①---|
口①口口 |----|
口口口口 |----|
口口口口 |----|
8
口口口口 |①---|
口①①口 |----|
口口口口 |----|
口口口口 |----|
9
口口口口 |①---|
口口口口 |----|
口①①口 |----|
口口口口 |----|
10
口口口口 |①---|
口口①口 |----|
口口口口 |----|
口口口口 |----|
11
口口口口 |①---|
口①口口 |----|
口口口口 |----|
口口口口 |----|
12
口口口① |①---|
口口②口 |----|
口口口口 |②---|
口口口口 |----|
13
口口口口 |①---|
口口口口 |----|
口①口口 |②---|
②口口口 |----|
14
口口口口 |①---|
口①口口 |----|
口口口口 |----|
口口口口 |----|
15
口口口口 |①---|
口口①口 |----|
口口口口 |----|
口口口口 |----|
16
①口口口 |①---|
口②口口 |----|
口口口口 |②---|
口口口口 |----|
17
口口口口 |①---|
口口口口 |----|
口口①口 |②---|
口口口② |----|
18
口口口口 |①---|
口口口口 |----|
口口①口 |----|
口口口口 |----|
19
口口口口 |①---|
口口口口 |----|
口①口口 |----|
口口口口 |----|
20
口口口口 |①---|
口口①口 |----|
口口口口 |----|
口口口口 |----|
21
口口口口 |①---|
口①口口 |----|
口口口口 |----|
口口口口 |----|
22
口口口口 |①---|
口口口口 |----|
口口①口 |----|
口口口口 |----|
23
口口口口 |①---|
口口口口 |----|
口①口口 |----|
口口口口 |----|
24
口口口口 |①---|
口口①口 |----|
口口口口 |----|
口口口口 |----|
25
口口口口 |①---|
口①口口 |----|
口口口口 |----|
口口口口 |----|
26
口口①① |①---|
口口口口 |----|
口口口口 |----|
口口口口 |----|
27
①①口口 |①---|
口口口口 |----|
口口口口 |----|
口口口口 |----|
28
口口口口 |①---|
口口①① |----|
口口口口 |----|
口口口口 |----|
29
口口口口 |①---|
①①口口 |----|
口口口口 |----|
口口口口 |----|
30
口口口口 |①---|
口口口口 |----|
口口①① |----|
口口口口 |----|
31
口口口口 |①---|
口口口口 |----|
①①口口 |----|
口口口口 |----|
32
口口口口 |①---|
口口口口 |----|
口口口口 |----|
口口①① |----|
33
口口口口 |①---|
口口口口 |----|
口口口口 |----|
①①口口 |----|
34
口口口口 |①---|
口口口口 |②---|
口口口口 |----|
口②①口 |----|
35
口口口口 |①---|
口口口口 |②---|
口②①口 |----|
口口口口 |----|
36
口口口口 |①---|
口②①口 |----|
口口口口 |②---|
口口口口 |----|
37
口口口口 |①---|
①口口口 |----|
口口口口 |----|
口口口口 |----|
38
口口口口 |①---|
口①①口 |----|
口口口口 |----|
口口口口 |----|
39
口口口口 |①---|
口口口口 |----|
口①①口 |----|
口口口口 |----|
40
口口口口 |①---|
口口口① |----|
口口口② |②---|
口口口口 |----|
41
口口口口 |①---|
口口口口 |----|
口口口口 |----|
口口口① |----|
42
口口口口 |①---|
口口口口 |②---|
口口口口 |----|
口①②口 |----|
43
口口口口 |①---|
口口口口 |②---|
口①②口 |----|
口口口口 |----|
44
口口口口 |①---|
口①②口 |----|
口口口口 |②---|
口口口口 |----|
45
口口口口 |①---|
口口口① |----|
口口口口 |----|
口口口口 |----|
46
口口口口 |①---|
口①①口 |----|
口口口口 |----|
口口口口 |----|
47
口口口口 |①---|
口口口口 |----|
口①①口 |----|
口口口口 |----|
48
口口口口 |①---|
口口口口 |----|
口②②口 |②---|
口①①口 |----|
49
口②②口 |①---|
口①①口 |----|
口口口口 |②---|
口口口口 |----|
50
①②②① |①---|
口口口口 |--②-|
口③③口 |----|
口口口口 |--③-|
51
口口口口 |----|
口口口口 |----|
口口口口 |----|
口口口口 |----|
52
口口口口 |①---|
④③②① |②---|
口口口口 |③---|
口口口口 |④---|
53
口口口口 |①---|
口口口口 |②---|
口③②① |③---|
口口口口 |----|
54
口口口口 |①---|
口①口② |----|
口口口口 |②---|
口口口口 |----|
55
口口口口 |①---|
口口口口 |----|
口①口② |②---|
口口口口 |----|
56
口口口口 |①---|
①②③④ |②---|
口口口口 |③---|
口口口口 |④---|
57
口口口口 |①---|
口口口口 |②---|
①②③④ |③---|
口口口口 |④---|
58
口口口口 |①---|
口①①口 |----|
口口口口 |----|
口口口口 |----|
59
口口口口 |----|
①口口口 |①---|
口②口口 |②---|
口口③口 |③---|
60
口口口口 |①---|
④③②① |②---|
口口口口 |③---|
口口口口 |④---|
61
口口口口 |①---|
口口口口 |②---|
口③②① |③---|
口口口口 |----|
62
口口口口 |①---|
口①口② |----|
口口口口 |②---|
口口口口 |----|
63
口口口口 |①---|
口口口口 |----|
口①口② |②---|
口口口口 |----|
64
口口口口 |①---|
①②③④ |②---|
口口口口 |③---|
口口口口 |④---|
65
口口口口 |①---|
口口口口 |②---|
①②③④ |③---|
口口口口 |④---|
66
口口口口 |①---|
口①①口 |----|
口口口口 |----|
口口口口 |----|
67
口口口口 |①---|
④③②① |②---|
口口口口 |③---|
口口口口 |④---|
68
口①①口 |①---|
口口口口 |----|
口②②口 |②---|
口口口口 |----|
69
口①口① |①---|
口口①口 |----|
口口口口 |----|
口口口口 |----|
70
口口口口 |①---|
口②①口 |----|
口口口口 |②---|
口口口口 |----|
71
口口口口 |①---|
①②②口 |----|
口口口口 |②---|
口口口口 |----|
72
②口口① |①---|
口口口口 |----|
口口口口 |②---|
口口口口 |----|
73
口口口口 |①---|
②口口① |----|
口口口口 |②---|
口口口口 |----|
74
口口口口 |①---|
口口口口 |----|
②口口① |②---|
口口口口 |----|
75
口口口口 |①---|
口②②口 |----|
口③③口 |②---|
口口口① |③---|

accuracy: 99.5%
最終更新:2023年06月17日 03:38