アットウィキロゴ
ピースサイン
米津玄師

ADVANCED

Level: 6
BPM: 200
Notes: 410

1
口口口口 |----|
口口口口 |----|
口口口口 |----|
口口口口 |----|
2
口②②口 |①---|
口口口口 |----|
口口口口 |②---|
口①①口 |----|
3
口口口① |①---|
口②口口 |②---|
口口口③ |③---|
口口口口 |----|
4
口②②口 |①---|
口口口口 |----|
口口口口 |②---|
口①①口 |----|
5
①口口口 |①---|
口口②口 |②---|
③口口口 |③---|
口口口口 |----|
6
口②②口 |①---|
口口口口 |----|
口口口口 |②---|
口①①口 |----|
7
口口口① |①---|
口②口口 |②---|
口口口③ |③---|
口口口口 |----|
8
①口口① |①---|
口口口口 |----|
口口口口 |----|
口口口口 |----|
9
口口口口 |①-②-|
口口口口 |③-④-|
口②①口 |----|
口④③口 |----|
10
口口口③ |①---|
口口口口 |--②-|
口口口口 |--③-|
①④②① |--④-|
11
①⑤口口 |--①-|
口口④口 |--②-|
口②②③ |--③-|
口口口口 |④-⑤-|
12
④口③⑤ |--①-|
口②口口 |②-③-|
①口口口 |--④-|
口口口口 |⑤---|
13
口口口口 |①-②-|
口③④口 |③-④-|
口①②口 |----|
口口口口 |----|
14
③口口口 |①---|
口口口口 |--②-|
口口口口 |--③-|
①②④① |--④-|
15
口口⑤① |--①-|
口④口口 |--②-|
③②②口 |--③-|
口口口口 |④-⑤-|
16
⑤③口④ |--①-|
口口②口 |②-③-|
口口口① |--④-|
口口口口 |⑤---|
17
口口口口 |①-②-|
口口口⑤ |③-④-|
⑥②①口 |--⑤-|
口④③口 |--⑥-|
18
口口①① |①---|
②口口口 |②-③-|
口③口④ |--④-|
口口口口 |----|
19
①①口口 |①---|
口口口② |②-③-|
④口③口 |--④-|
口口口口 |----|
20
①①口口 |①---|
口口②② |②---|
③③口口 |③---|
口口④④ |④---|
21
口①①口 |①---|
③口⑥② |②-③-|
口⑤口口 |--④-|
口口④口 |⑤-⑥-|
22
①①口口 |①---|
口口口② |②-③-|
④口③口 |--④-|
口口口口 |----|
23
口①①口 |①---|
②⑥口③ |②-③-|
口口⑤口 |--④-|
口④口口 |⑤-⑥-|
24
口④①① |①---|
②口⑤口 |②-③-|
口③口⑥ |--④-|
口口口口 |⑤-⑥-|
25
口口口口 |----|
口口③口 |----|
口②口口 |--①-|
口口①口 |②-③-|
26
①①口口 |①---|
口口口② |②-③-|
④口③口 |--④-|
口口口口 |----|
27
口口①① |①---|
②口④口 |②-③-|
⑤③口口 |--④-|
口口⑥口 |⑤-⑥-|
28
口口①① |①---|
②②口口 |②---|
口口③③ |③---|
④④口口 |④---|
29
口①①口 |①---|
②⑥口③ |②-③-|
口口⑤口 |--④-|
口④口口 |⑤-⑥-|
30
口口①① |①---|
②口口口 |②-③-|
口③口④ |--④-|
口口口口 |----|
31
口①①口 |①---|
③口⑥② |②-③-|
口⑤口口 |--④-|
口口④口 |⑤-⑥-|
32
①①④口 |①---|
口⑤口② |②-③-|
⑥口③口 |--④-|
口口口口 |⑤-⑥-|
33
口口口口 |----|
①①口口 |----|
口口口口 |----|
口口口口 |①---|
34
口口口② |①---|
口口③③ |②---|
口②口口 |----|
口口①① |③---|
35
②口口③ |①---|
口④口口 |②---|
口口②口 |----|
①①口口 |③-④-|
36
口④④口 |①---|
②口口口 |②-③-|
口③口① |--④-|
口⑤⑤口 |--⑤-|
37
口口口口 |----|
口①①口 |----|
口口口口 |①---|
口②②口 |②---|
38
口口①① |①---|
②口口口 |②-③-|
口③口④ |--④-|
口口口口 |----|
39
①①口口 |①---|
口口口② |②-③-|
④口③口 |--④-|
口口口口 |----|
40
③①①② |①---|
口④④口 |②-③-|
口口口口 |--④-|
口⑤⑤口 |--⑤-|
41
口口口口 |----|
口口口口 |----|
口①口口 |----|
口①口口 |①---|
42
②③口① |①---|
口③口① |②---|
口口②口 |----|
口口口口 |③---|
43
口口口③ |①---|
口④②口 |②---|
口口口① |----|
②口口① |③-④-|
44
口④④口 |①---|
②口口口 |②-③-|
口③口① |--④-|
口⑤⑤口 |--⑤-|
45
口口口口 |----|
②口口① |----|
②口口① |①---|
口口口口 |②---|
46
口①口① |①---|
口口口口 |②---|
口口③口 |----|
口②口② |③---|
47
①口①口 |①---|
口口口口 |②---|
口③口口 |----|
②口②口 |③---|
48
口口口口 |①---|
口口口口 |----|
口口②口 |②---|
口口口① |----|
49
②口口口 |①---|
口①口口 |----|
口口口口 |②---|
口口口口 |----|
50
口口口口 |①---|
②口口② |--②-|
③①①③ |--③-|
④口口④ |--④-|
51
口口口① |----|
②口①口 |①---|
口②口③ |②---|
口口③口 |③---|
52
③①①② |①---|
口口口口 |②-③-|
口⑤口⑤ |--④-|
口④④口 |--⑤-|
53
口口口口 |--①-|
①口②口 |②-③-|
③口④口 |④-⑤-|
⑤⑥⑥口 |--⑥-|
54
②口口① |--①-|
⑤⑥⑥④ |②-③-|
口③③口 |--④-|
口口口口 |⑤-⑥-|
55
口③③口 |--①-|
口口口口 |②-③-|
②口口① |--④-|
口④④口 |----|
56
口口口口 |①---|
⑤②口⑤ |②-③-|
③口口④ |--④-|
①口口① |--⑤-|
57
口②①口 |--①-|
口④③口 |②-③-|
口⑥⑤口 |④-⑤-|
口口⑦口 |⑥-⑦-|
58
口口口口 |----|
口口口口 |----|
口口口口 |----|
口口口口 |----|
59
①口口口 |----|
口①口② |①---|
③口②口 |②---|
口③口口 |③---|
60
②①①③ |①---|
口口口口 |②-③-|
⑤口⑤口 |--④-|
口④④口 |--⑤-|
61
口口口口 |--①-|
口②口① |②-③-|
口④口③ |④-⑤-|
口⑥⑥⑤ |--⑥-|
62
①口口② |--①-|
④⑥⑥⑤ |②-③-|
口③③口 |--④-|
口口口口 |⑤-⑥-|
63
口③③口 |--①-|
口口口口 |②-③-|
①口口② |--④-|
口④④口 |----|
64
口口口口 |①---|
⑤口②⑤ |②-③-|
④口口③ |--④-|
①口口① |--⑤-|
65
口①②口 |--①-|
口③④口 |②-③-|
口⑤⑥口 |④-⑤-|
口⑦口口 |⑥-⑦-|
66
口口口口 |----|
口口口口 |----|
口口口口 |----|
口口口口 |----|
67
口口①口 |①---|
口②④① |②---|
②⑤③口 |③---|
口口口③ |④-⑤-|
68
口口口口 |①---|
⑤②口④ |②-③-|
③口口口 |--④-|
①⑥⑥⑥ |⑤-⑥-|
69
②①口① |----|
口口③口 |①---|
口口①口 |----|
口口口口 |②-③-|
70
口④④口 |①---|
口口口② |②-③-|
①口③口 |--④-|
⑤口口⑤ |--⑤-|
71
②口口② |--①-|
口①①口 |----|
口③③口 |②-③-|
口口口口 |----|
72
口口口③ |①---|
口口口口 |--②-|
口口口口 |--③-|
①④②① |--④-|
73
①⑤口口 |--①-|
口口④口 |--②-|
口②②③ |--③-|
口口口口 |④-⑤-|
74
④口③⑤ |--①-|
口②口口 |②-③-|
①口口口 |--④-|
口口口口 |⑤---|
75
口口口口 |①-②-|
⑤口口⑤ |③-④-|
⑥①②⑥ |--⑤-|
⑦③④⑦ |⑥-⑦-|

accuracy: 99.5%
最終更新:2023年06月17日 03:46