アットウィキロゴ
ピースサイン
米津玄師

EXTREME

Level: 8
BPM: 200
Notes: 569

1
口口口口 |----|
口口口口 |----|
口口口口 |----|
口口口口 |----|
2
③口口② |①---|
口④口口 |--②-|
口口口⑤ |③-④-|
①口口① |--⑤-|
3
口口①口 |①---|
①④口③ |②---|
②③口④ |③---|
口口②口 |④---|
4
②口口③ |①---|
口口④口 |--②-|
⑤口口口 |③-④-|
①口口① |--⑤-|
5
口①口口 |①---|
③口④① |②---|
④口③② |③---|
口②口口 |④---|
6
③口口② |①---|
口④口口 |--②-|
口口口⑤ |③-④-|
①口口① |--⑤-|
7
口口①口 |①---|
①④口③ |②---|
②③口④ |③---|
口口②口 |④---|
8
口②①③ |①-②-|
④⑤⑤口 |--③-|
口口③口 |--④-|
口④口口 |--⑤-|
9
口口口口 |①-②-|
口口口口 |③-④-|
②口口① |----|
④口口③ |----|
10
④④口口 |①-②-|
⑤口口③ |--③-|
①②口口 |--④-|
口⑤③口 |--⑤-|
11
口口①① |--①-|
⑤口口口 |--②-|
口④口口 |--③-|
②口③② |④-⑤-|
12
③③口口 |--①-|
口口④口 |②-③-|
②⑤口① |--④-|
口口⑥口 |⑤-⑥-|
13
⑥口④④ |①-②-|
③③口口 |③-④-|
口⑤②② |--⑤-|
①①口口 |⑥---|
14
口口④④ |①-②-|
③口口⑤ |--③-|
口口②① |--④-|
口③⑤口 |--⑤-|
15
①①口口 |--①-|
口口口⑤ |--②-|
口口④口 |--③-|
②③口② |④-⑤-|
16
口口③③ |--①-|
口④口口 |②-③-|
①口⑤② |--④-|
口⑥口口 |⑤-⑥-|
17
①①⑤口 |①-②-|
口⑥②② |③-④-|
③③⑦口 |--⑤-|
口口④④ |⑥-⑦-|
18
④①口② |①---|
①⑤口口 |②-③-|
②③⑥⑤ |--④-|
口口口口 |⑤-⑥-|
19
④①口② |①---|
①⑤②口 |②-③-|
口③⑥⑤ |--④-|
口口口口 |⑤-⑥-|
20
⑤①口⑥ |①-②-|
②口④③ |③-④-|
⑥③口口 |⑤---|
口口口口 |⑥---|
21
口口口口 |①---|
口口③② |②-③-|
口口口口
口①①口

口口口口
口④口口
口口口⑤ |--④-|
口⑥口口 |⑤-⑥-|
22
④①口② |①---|
①⑤口口 |②-③-|
②③⑥⑤ |--④-|
口口口口 |⑤-⑥-|
23
④①口② |①---|
①⑤口口 |②-③-|
②③⑥⑤ |--④-|
口口口口 |⑤-⑥-|
24
口口口⑤ |①---|
④口③② |②-③-|
口⑤口口 |--④-|
①口⑥口 |⑤-⑥-|
25
口④口口 |①---|
口口⑤口 |②-③-|
口⑥③② |--④-|
①口口口 |⑤-⑥-|
26
②口①④ |①---|
口口⑤① |②-③-|
⑤⑥③② |--④-|
口口口口 |⑤-⑥-|
27
②口①④ |①---|
口口⑤① |②-③-|
⑤⑥③② |--④-|
口口口口 |⑤-⑥-|
28
⑥口①⑤ |①-②-|
③④口② |③-④-|
口口③⑥ |⑤---|
口口口口 |⑥---|
29
口口口口 |①---|
②③口口 |②-③-|
口口口口
口①①口

口口口口
口口④口
⑤口口口 |--④-|
口口⑥口 |⑤-⑥-|
30
②口①④ |①---|
口口⑤① |②-③-|
⑤⑥③② |--④-|
口口口口 |⑤-⑥-|
31
②口①④ |①---|
口口⑤① |②-③-|
⑤⑥③② |--④-|
口口口口 |⑤-⑥-|
32
⑤口口口 |①---|
②③口④ |②-③-|
口口⑤口 |--④-|
口⑥口① |⑤-⑥-|
33
④口口④ |①---|
②口口口 |②-③-|
口③口口 |----|
口口口① |④---|
34
③②②③ |①---|
口口口口 |②---|
口口口① |----|
①口①口 |③---|
35
口②②口 |①---|
口口口口 |②---|
①口④③ |----|
口①口① |③-④-|
36
④口④② |①---|
①口③口 |②-③-|
口口口口 |--④-|
⑤①⑤口 |--⑤-|
37
口③口口 |①---|
口口④口 |--②-|
②⑤口① |③-④-|
口口⑥口 |⑤-⑥-|
38
口④①口 |①---|
②③口① |②-③-|
口口口④ |--④-|
口⑤⑤口 |--⑤-|
39
口口①④ |①---|
②③口① |②-③-|
口④口口 |--④-|
口⑤⑤口 |--⑤-|
40
口④①④ |①---|
②③口① |②-③-|
口口口口 |--④-|
口⑤口⑤ |--⑤-|
41
口口口口 |①---|
口口口口 |--②-|
②④③① |----|
口口口口 |③-④-|
42
口①①① |①---|
②口口口 |②---|
口③④口 |----|
口②②口 |③-④-|
43
①①①口 |①---|
口口口② |②---|
口④口口 |----|
③②②口 |③-④-|
44
②④口④ |①---|
口③①口 |②-③-|
口口口口 |--④-|
口⑤口⑤ |--⑤-|
45
口口③口 |①---|
口④口口 |--②-|
②口⑤① |③-④-|
口⑥口口 |⑤-⑥-|
46
④①口口 |①---|
①口③口 |②---|
口③口② |③---|
口口②口 |④---|
47
口口①④ |①---|
口③口① |②---|
②口③口 |③---|
口②口口 |④---|
48
口①口口 |①---|
①口②口 |----|
口②口口 |②---|
口口口口 |----|
49
口口口口 |①---|
口口口口 |--②-|
口③②① |③---|
口口①口 |----|
50
①①①① |①---|
②口③口 |--②-|
②④③口 |--③-|
②口③口 |--④-|
51
口②①口 |----|
①口口② |①---|
口口口口 |②---|
口③③口 |③---|
52
⑤④⑤① |①---|
口②口口 |②-③-|
④口③① |--④-|
口口口口 |--⑤-|
53
口口⑥口 |--①-|
⑥④①④ |②-③-|
口②口口 |④-⑤-|
③口⑤口 |--⑥-|
54
⑥③口⑥ |--①-|
口口口③ |②-③-|
④⑤②① |--④-|
口口口口 |⑤-⑥-|
55
口③③口 |--①-|
③口口③ |②-③-|
口口口口 |--④-|
④②①④ |----|
56
口口口① |①---|
口口口口 |②-③-|
②口口①
口③口口

⑤口口⑤
口口口口
口④④口 |--④-|
口口口口 |--⑤-|
57
口⑦⑦口 |--①-|
②⑥①⑤ |②-③-|
⑥④⑤③ |④-⑤-|
④口③口 |⑥-⑦-|
58
口口口口 |①---|
②口①口 |②---|
口口口口 |③---|
④口③口 |④---|
59
口②③口 |①---|
③口口② |②---|
①①①口 |③---|
口④④口 |④---|
60
①⑤④⑤ |①---|
口口②口 |②-③-|
①③口④ |--④-|
口口口口 |--⑤-|
61
口⑥口口 |--①-|
④①④⑥ |②-③-|
口口②口 |④-⑤-|
口⑤口③ |--⑥-|
62
⑥口③⑥ |--①-|
③口口口 |②-③-|
①②⑤④ |--④-|
口口口口 |⑤-⑥-|
63
口③③口 |--①-|
③口口③ |②-③-|
口口口口 |--④-|
④①②④ |----|
64
①口口口 |①---|
口口口口 |②-③-|
①口口②
口口③口

⑤口口⑤
口口口口
口④④口 |--④-|
口口口口 |--⑤-|
65
口⑦⑦口 |--①-|
⑤①⑥② |②-③-|
③⑤④⑥ |④-⑤-|
口③口④ |⑥-⑦-|
66
口口口口 |①---|
口①口② |②---|
口口口口 |③---|
口③口④ |④---|
67
口①①① |①---|
②②②④ |②---|
⑤③③③ |③---|
口口口口 |④-⑤-|
68
⑥口⑥口 |①---|
口口②口 |②-③-|
口④口③ |--④-|
⑤口口① |⑤-⑥-|
69
口②口② |----|
口②③② |①-②-|
口④②口 |----|
口①①① |③-④-|
70
①④①④ |①---|
口口口口 |②-③-|
⑤口⑤② |--④-|
口口③口 |--⑤-|
71
口口口口 |--①-|
②①①② |----|
口口口口 |②-③-|
③口口③ |----|
72
④④口口 |①-②-|
⑤口口③ |--③-|
①②口口 |--④-|
口⑤③口 |--⑤-|
73
口口①① |--①-|
⑤口口口 |--②-|
口④口口 |--③-|
②口③② |④-⑤-|
74
③③口口 |--①-|
口口④口 |②-③-|
②⑤口① |--④-|
口口⑥口 |⑤-⑥-|
75
口口①① |①-②-|
②②口口 |③-④-|
口口③③
④④口口

⑦⑦⑦⑦
口口⑤口
口⑥口口 |--⑤-|
口口口口 |⑥-⑦-|

accuracy: 99.5%
最終更新:2023年06月17日 04:00