アットウィキロゴ
フィクサー
ぬゆり

BASIC

Level: 3
BPM: 135
Notes: 174

1
口口口口 |----|
口口口口 |----|
口口口口 |----|
口口口口 |----|
2
口口口口 |①---|
口口①口 |----|
口口口口 |----|
口口口口 |----|
3
口口口口 |①---|
口①口口 |----|
口口口口 |----|
口口口口 |----|
4
口口口口 |①---|
口口口口 |----|
口口①口 |----|
口口口口 |----|
5
口口口口 |①---|
口口口口 |----|
口①口口 |----|
口口口口 |----|
6
口口口口 |①---|
口①口口 |----|
口口口口 |----|
口口口口 |----|
7
口口口口 |①---|
口口①口 |----|
口口口口 |----|
口口口口 |----|
8
口口口口 |①---|
口口口口 |----|
口①口口 |----|
口口口口 |----|
9
口口口口 |①---|
口口口口 |----|
口口①口 |----|
口口口口 |----|
10
口口口口 |①---|
口③②① |②---|
口口口口 |③---|
口口口口 |----|
11
①②③口 |①---|
口口口口 |②---|
口口口口 |③---|
口口口口 |----|
12
口口口口 |①---|
①②③口 |②---|
口口口口 |③---|
口口口口 |----|
13
口③②① |①---|
口口口口 |②---|
口口口口 |③---|
口口口口 |----|
14
口口口口 |①---|
①②③口 |②---|
口口口口 |③---|
口口口口 |----|
15
口③②① |①---|
口口口口 |②---|
口口口口 |③---|
口口口口 |----|
16
口口口口 |①---|
口③②① |②---|
口口口口 |③---|
口口口口 |----|
17
①②③口 |①---|
口口口口 |②---|
口口口口 |③---|
口口口口 |----|
18
口口口口 |①---|
口①①口 |----|
口②②口 |②---|
口口口口 |----|
19
口口口口 |①---|
口①①口 |----|
口②②口 |②---|
口口口口 |----|
20
口口口口 |①---|
口口口① |②---|
口口口② |③---|
口口口③ |----|
21
口口口口 |①---|
①口口口 |②---|
②口口口 |③---|
③口口口 |----|
22
口口口口 |①---|
口口口口 |----|
口①①口 |②---|
口②②口 |----|
23
口口口口 |①---|
口口口口 |----|
口①①口 |②---|
口②②口 |----|
24
口口口① |①---|
口口口② |②---|
口口口③ |③---|
口口口口 |----|
25
①口口口 |①---|
②口口口 |②---|
③口口口 |③---|
口口口口 |----|
26
口口口口 |①---|
口①①口 |----|
口②②口 |②---|
口口口口 |----|
27
口口口口 |①---|
口①①口 |----|
口②②口 |②---|
口口口口 |----|
28
口口口口 |①---|
口口②① |----|
口口口口 |②---|
口口口口 |----|
29
口口口口 |①---|
②①口口 |----|
口口口口 |②---|
口口口口 |----|
30
口口口口 |①---|
口①①口 |----|
口②②口 |②---|
口口口口 |----|
31
口口口口 |①---|
口①①口 |----|
口②②口 |②---|
口口口口 |----|
32
口口口口 |①---|
①②口口 |----|
口口口口 |②---|
口口口口 |----|
33
口口口口 |①---|
口口①② |----|
口口口口 |②---|
口口口口 |----|
34
口①②口 |①---|
口③④口 |②---|
口口口口 |③---|
口口口口 |④---|
35
口口口口 |①---|
口口口口 |②---|
口①②口 |③---|
口③口口 |----|
36
口口口口 |①---|
口口口① |----|
口口口② |②---|
口口口口 |----|
37
口口口口 |①---|
①②③口 |②---|
口口口口 |③---|
口口口口 |----|
38
口②①口 |①---|
口④③口 |②---|
口口口口 |③---|
口口口口 |④---|
39
口口口口 |①---|
口口口口 |②---|
口②①口 |③---|
口口③口 |----|
40
口口口口 |①---|
①口口口 |----|
②口口口 |②---|
口口口口 |----|
41
口口口口 |①---|
口①①口 |----|
口②②口 |②---|
口口口口 |----|
42
口口口① |①---|
口口②口 |②---|
口③口口 |③---|
口口口口 |----|
43
口③②口 |①---|
口①口① |----|
口口口口 |②---|
口口口口 |③---|
44
①口口口 |①---|
口②口口 |②---|
口口③口 |③---|
口口口口 |----|
45
口②③口 |①---|
①口①口 |----|
口口口口 |②---|
口口口口 |③---|
46
口口口① |①---|
口口②口 |②---|
口③口口 |③---|
口口口口 |----|
47
口③②口 |①---|
口①口① |----|
口口口口 |②---|
口口口口 |③---|
48
①口口② |①---|
口口口口 |----|
口口口口 |②---|
口口口口 |----|
49
口②②口 |①---|
①③③① |----|
口④④口 |②-③-|
口口口口 |④---|
50
口口口① |①---|
口口口② |②---|
口口口③ |③---|
口口口口 |----|
51
①口口口 |①---|
②④④口 |②---|
③口口口 |③---|
口口口口 |④---|
52
口口口① |①---|
口口口② |②---|
口口口③ |③---|
口口口口 |----|
53
①口口口 |①---|
②④④口 |②---|
③口口口 |③---|
口口口口 |④---|
54
①口口口 |①---|
②口口口 |②---|
③口口口 |③---|
口口口口 |----|
55
口口口① |①---|
口④④② |②---|
口口口③ |③---|
口口口口 |④---|
56
①口口口 |①---|
②口口口 |②---|
③口口口 |③---|
口口口口 |----|
57
口口口① |①---|
口④④② |②---|
口口口③ |③---|
口口口口 |④---|
58
口口口口 |①---|
口口口口 |----|
口①①口 |----|
口口口口 |----|

accuracy: 99.5%
最終更新:2023年06月17日 02:42