アットウィキロゴ
フィクサー
ぬゆり

ADVANCED

Level: 7
BPM: 135
Notes: 554

1
口口口口 |----|
口口口口 |----|
口口口口 |----|
口口口口 |----|
2
口口口② |①---|
口口③口 |②----③|
口口口口
①口口口

口口⑦⑦
⑥⑥口口
④口口口 |--④--⑤|
口口⑤口 |⑥-⑦-|
3
②口口口 |①---|
口③口口 |②----③|
口口口口
口口口①

⑦⑦口口
口口⑥⑥
口口口④ |--④--⑤|
口⑤口口 |⑥-⑦-|
4
口口口① |①---|
口口③口 |②----③|
口口口口
②口口口

口口⑦⑦
⑥⑥口口
④口口口 |--④--⑤|
口口⑤口 |⑥-⑦-|
5
①口口口 |①---|
口口口口 |②----③|
口③口口
口口口②

④口口⑥
口口口口
口口⑤口 |--④--⑤|
口口口口 |--⑥---|
6
②口口口 |①---|
口③口口 |②----③|
口口口口
口口口①

⑦⑦口口
口口⑥⑥
口口口④ |--④--⑤|
口⑤口口 |⑥-⑦-|
7
口口口② |①---|
口口③口 |②----③|
口口口口
①口口口

口口⑦⑦
⑥⑥口口
④口口口 |--④--⑤|
口口⑤口 |⑥-⑦-|
8
①口口口 |①---|
口③口口 |②----③|
口口口口
口口口②

⑦⑦口口
口口⑥⑥
口口口④ |--④--⑤|
口⑤口口 |⑥-⑦-|
9
口⑤④口 |①-②-|
③口口⑥ |③-④-|
口⑦②口 |⑤-⑥-|
①口口⑧ |⑦-⑧-|
10
口③口口 |①---|
①②口④ |②---|
口⑤口口 |③----④|
①②口口 |---⑤--|
11
②口口① |---①--|
口口口口 |--②--③|
口口口①
口口③口

口口口口
④④口口
口口⑤⑤ |--④-|
⑥⑥口口 |⑤-⑥-|
12
口口③口 |①---|
④口②① |②---|
口口⑤口 |③----④|
口口②① |---⑤--|
13
①口口② |---①--|
口口口口 |--②--③|
①口口口
口③口口

口口口口
口口④④
⑤⑤口口 |--④-|
口口⑥⑥ |⑤-⑥-|
14
口③口口 |①---|
①②口④ |②---|
口⑤口口 |③----④|
①②口口 |---⑤--|
15
②口口① |---①--|
口口口口 |--②--③|
口口口①
口口③口

口口口口
④④口口
口口⑤⑤ |--④-|
⑥⑥口口 |⑤-⑥-|
16
口口③口 |①---|
④口②① |②---|
口口⑤口 |③----④|
口口②① |---⑤--|
17
①口口② |---①--|
口口口口 |--②--③|
①口口口
口③口口

口口口口
口口④④
⑤⑤口口 |--④-|
口口⑥⑥ |⑤-⑥-|
18
口口口② |①-②-|
口①③口 |③-④-|
口④①口
口口口口

口⑤口口
⑤口口口
口口⑦⑥ |⑤--⑥-⑦|
口⑧⑧口 |--⑧---|
19
②口口口 |①-②-|
口③①口 |③-④-|
口①④口
口口口口

⑧口⑤⑧
口口口⑤
⑥⑦口口 |⑤--⑥-⑦|
口口口口 |--⑧---|
20
口④③口 |①---|
④①①③ |②---|
口口口口 |③----④|
口②②口 |----|
21
口⑥⑤口 |①-②-|
⑥口口⑤ |③-④-|
③③①① |⑤----⑥|
④④②② |----|
22
②口口口 |①-②-|
口③①口 |③-④-|
口①④口
口口口口

口口⑤口
口口口⑤
⑥⑦口口 |⑤--⑥-⑦|
口⑧⑧口 |--⑧---|
23
口口口② |①-②-|
口①③口 |③-④-|
口④①口
口口口口

⑧⑤口⑧
⑤口口口
口口⑦⑥ |⑤--⑥-⑦|
口口口口 |--⑧---|
24
口③④口 |①---|
③①①④ |②---|
口口口口 |③----④|
口②②口 |----|
25
口⑤⑥口 |①-②-|
⑤口口⑥ |③-④-|
①①③③ |⑤----⑥|
②②④④ |----|
26
口⑧⑧⑥ |①-②-|
⑤⑤③⑦ |③-④-|
口④口② |⑤--⑥-⑦|
口①①口 |--⑧---|
27
⑥⑧⑧口 |①-②-|
⑦③⑤⑤ |③-④-|
②口④口 |⑤--⑥-⑦|
口①①口 |--⑧---|
28
④口口③ |①-②-|
口⑤②口 |--③-|
口④③口 |--④-|
⑤①①② |--⑤-|
29
③口口② |--①-|
口④①口 |--②-|
口③②口 |--③-|
④口口① |--④-|
30
口⑧⑧⑥ |①-②-|
⑤⑤③⑦ |③-④-|
口④口② |⑤--⑥-⑦|
口①①口 |--⑧---|
31
⑥⑧⑧口 |①-②-|
⑦③⑤⑤ |③-④-|
②口④口 |⑤--⑥-⑦|
口①①口 |--⑧---|
32
口口口③ |①-②-|
口口②口 |--③-|
口口③口
口①①②

口④口口
⑤口⑤口
④口口口 |--④-|
口⑤口口 |--⑤-|
33
口③口口 |①-②-|
口口口口 |--③-|
口①口口
口口②口

口口口口
口口④口
⑦⑤口⑦ |④-⑤-|
口口⑥口 |⑥-⑦-|
34
④口⑤口 |--①-|
①②③⑥ |②-③-|
④⑦⑦口 |④--⑤-⑥|
①②③口 |--⑦---|
35
口口口口 |①-②-|
①口口④ |③-④-|
口口口口
③口口②

口⑥口口
⑦口口口
口⑤⑤口 |⑤--⑥-⑦|
口⑧⑧口 |---⑧--|
36
④⑤⑤③ |----|
口②①口 |①-②-|
口④③口 |--③-|
口口口口 |④-⑤-|
37
⑤口口④ |--①-|
口②①口 |②-③-|
口口口口 |④---|
②③③① |⑤---|
38
口⑦⑦④ |--①-|
⑤③②① |②-③-|
口⑥口④ |④--⑤-⑥|
口③②① |---⑦--|
39
口口口口 |--①-|
②口口① |②-③-|
②③③①
口口口口

④口口④
口口口⑧
口口口口 |④-⑤-|
⑤⑦⑥⑤ |--⑥⑦-⑧|
40
③口口⑥ |--①②-③|
口⑤④口 |--④⑤-⑥|
口①②口
口口口口

口⑦⑧口
⑨口口口
口⑪⑩口 |--⑦⑧-⑨|
口口口口 |--⑩⑪--|
41
口口口口 |①---|
口③③口 |②-③-|
①口口①
②口口②

④口口④
⑤口口⑤
⑥口口⑥ |--④-|
口口口口 |⑤-⑥-|
42
口②①口 |①---|
口①②口 |②---|
口②①口
口口口口

⑤⑤④④
④④⑤⑤
口口口口 |③----④|
③③③③ |---⑤--|
43
口口⑥口 |--①-|
口⑤④口 |--②-|
口③②口 |③-④-|
①①①① |⑤-⑥-|
44
①口口① |①---|
①口口① |②---|
②口口②
②口口②

口⑤⑤口
⑤④④⑤
口口口口 |③----④|
口③③口 |---⑤--|
45
⑥口口⑤ |--①-|
④口口③ |--②-|
①②②① |③-④-|
口①①口 |⑤-⑥-|
46
口①②口 |①---|
口②①口 |②---|
口①②口
口口口口

④④⑤⑤
⑤⑤④④
口口口口 |③---|
③③③③ |④-⑤-|
47
口口口口 |--①-|
口口口⑤ |--②-|
④②②③ |--③-|
①①①① |④-⑤-|
48
③口口③ |①-②-|
①②②口 |--③-|
口口口口
口口口口

口④④口
口⑤⑤口
口⑥⑥口 |--④-|
口口口口 |⑤-⑥-|
49
口①②口 |----|
口口口口 |----|
②③③① |①-②-|
口口口口 |③---|
50
口③口口 |①---|
①②口④ |②---|
口⑤口口 |③----④|
①②口口 |---⑤--|
51
②口口① |---①--|
口口口口 |--②--③|
口口口①
口口③口

口口口口
④④口口
口口⑤⑤ |--④-|
⑥⑥口口 |⑤-⑥-|
52
口口③口 |①---|
④口②① |②---|
口口⑤口 |③----④|
口口②① |---⑤--|
53
①口口② |---①--|
口口口口 |--②--③|
①口口口
口③口口

口口口口
口口④④
⑤⑤口口 |--④-|
口口⑥⑥ |⑤-⑥-|
54
口③口口 |①---|
①②口④ |②---|
口⑤口口 |③----④|
①②口口 |---⑤--|
55
②口口① |---①--|
口口口口 |--②--③|
口口口①
口口③口

口口口口
④④口口
口口⑤⑤ |--④-|
⑥⑥口口 |⑤-⑥-|
56
口口③口 |①---|
④口②① |②---|
口口⑤口 |③----④|
口口②① |---⑤--|
57
①口口② |---①--|
口口口口 |--②--③|
①口口口
口③口口

口口口口
口口④④
⑤⑤口口 |--④-|
口口⑥⑥ |⑤-⑥-|
58
口口口口 |①---|
口①口口 |----|
口口①口 |----|
口口口口 |----|

accuracy: 99.5%
最終更新:2023年06月17日 03:05