アットウィキロゴ
フィクサー
ぬゆり

EXTREME

Level: 9.6
BPM: 135
Notes: 763

1
口口口口 |----|
口口口口 |----|
口口口口 |----|
口口口口 |----|
2
④口口口 |①-②-|
口⑤③口 |③--④-⑤|
口②口口
口口①口

口⑨口⑧
⑦口口⑥
口⑨口⑧ |--⑥--⑦|
口口口口 |⑧-⑨-|
3
口口口④ |①-②-|
口③⑤口 |③--④-⑤|
口口②口
口①口口

⑧口⑨口
⑥口口⑦
⑧口⑨口 |--⑥--⑦|
口口口口 |⑧-⑨-|
4
④口口口 |①-②-|
口⑤③口 |③--④-⑤|
口②口口
口口①口

口口口⑨
⑦口⑨⑥
口口口⑧ |--⑥--⑦|
口口⑧口 |⑧-⑨-|
5
①⑧口⑦ |①-②-|
⑥②⑤⑨ |③--④-⑤|
口⑦③⑧ |--⑥--⑦|
⑤口⑥④ |--⑧--⑨|
6
口口口④ |①-②-|
口③⑤口 |③--④-⑤|
口口②口
口①口口

⑧口⑨口
⑥口口⑦
⑧口⑨口 |--⑥--⑦|
口口口口 |⑧-⑨-|
7
④口口口 |①-②-|
口⑤③口 |③--④-⑤|
口②口口
口口①口

口⑨口⑧
⑦口口⑥
口⑨口⑧ |--⑥--⑦|
口口口口 |⑧-⑨-|
8
口口口④ |①-②-|
⑥③⑤⑦ |③--④-⑤|
⑧口②⑨ |--⑥--⑦|
⑧①口⑨ |⑧-⑨-|
9
⑤⑥④口 |①-②-|
口③⑧⑦ |③-④-|
⑨⑩②口 |⑤-⑥⑦-⑧|
口①⑫⑪ |⑨-⑩⑪-⑫|
10
口口口① |①-②-|
①③口口 |③-④-|
口口口③
④②口口

⑤口⑤口
⑦口⑦口
⑧口⑧口 |⑤--⑥-⑦|
口口口⑥ |--⑧-|
11
口④口② |①-②-|
⑥口口⑤ |③-④⑤-⑥|
⑥④口②
口①①③

口口⑨⑨
口⑧⑧口
口口⑦口 |⑦-⑧-|
⑩⑩口口 |⑨-⑩-|
12
①口口口 |①-②-|
口口③① |③-④-|
③口口口
口口②④

口⑤口⑤
口⑦口⑦
口⑧口⑧ |⑤--⑥-⑦|
⑥口口口 |--⑧-|
13
②口④口 |①-②-|
⑤口口⑥ |③-④⑤-⑥|
②口④⑥
③①①口

⑨⑨口口
口⑧⑧口
口⑦口口 |⑦-⑧-|
口口⑩⑩ |⑨-⑩-|
14
口口口① |①-②-|
①③口口 |③-④-|
口口口③
④②口口

⑤口⑤口
⑦口⑦口
⑧口⑧口 |⑤--⑥-⑦|
口口口⑥ |--⑧-|
15
口④口② |①-②-|
⑥口口⑤ |③-④⑤-⑥|
⑥④口②
口①①③

口口⑨⑨
口⑧⑧口
口口⑦口 |⑦-⑧-|
⑩⑩口口 |⑨-⑩-|
16
①口口口 |①-②-|
口口③① |③-④-|
③口口口
口口②④

口⑤口⑤
口⑦口⑦
口⑧口⑧ |⑤--⑥-⑦|
⑥口口口 |--⑧-|
17
②口④口 |①-②-|
⑤口口⑥ |③-④⑤-⑥|
②口④⑥
③①①口

⑨⑨口口
口⑧⑧口
口⑦口口 |⑦-⑧-|
口口⑩⑩ |⑨-⑩-|
18
口口②② |①-②-|
⑤口⑥口 |③-④⑤-⑥|
③口④口
①①口口

⑦⑦口口
口⑩口⑪
口⑩口⑪ |⑦--⑧-⑨|
口⑧口⑨ |--⑩--⑪|
19
⑦口⑧口 |①-②③-④|
⑤口⑥口 |⑤-⑥⑦-⑧|
③口④口
①口②口

口⑫口⑨
⑭⑩口⑪
口⑨⑬口 |⑨--⑩-⑪|
口口口口 |--⑫⑬-⑭|
20
口⑤⑤口 |①-②-|
⑧③①⑥ |③-④-|
②⑦⑦④ |⑤--⑥-⑦|
③①③① |--⑧-|
21
②⑤⑤① |①-②-|
⑧②①⑥ |③-④-|
④⑦⑦③ |⑤--⑥-⑦|
口④③口 |--⑧-|
22
口③口② |①--②-③|
口⑤口④ |④-⑤⑥-⑦|
①⑦口⑥
口①口口

⑩口⑨⑪
口口⑫口
口口口口 |⑧--⑨-⑩|
口口⑧⑧ |--⑪⑫--|
23
口⑦口⑧ |①-②③-④|
口⑤口⑥ |⑤-⑥⑦-⑧|
口③口④
口①口②

⑨口⑩口
⑫口口⑭
⑪⑬⑨口 |⑨--⑩-⑪|
口口口口 |--⑫⑬-⑭|
24
口⑤⑤口 |①-②-|
⑥①③⑧ |③-④-|
④⑦⑦② |⑤--⑥-⑦|
①③①③ |--⑧-|
25
①⑤⑤② |①-②-|
⑥①②⑧ |③-④-|
③⑦⑦④ |⑤--⑥-⑦|
口③④口 |--⑧-|
26
②口口口 |①-②-|
口③口口 |③--④-⑤|
⑤口④①
口口①口

⑩⑫⑧⑪
⑦口⑥口
口口口口 |⑥-⑦⑧-⑨|
口⑨口口 |--⑩⑪-⑫|
27
口口口口 |①-②③-④|
⑥②⑦① |⑤--⑥-⑦|
⑥④⑦③
口口⑤⑤

⑧口口⑨
口⑩口口
口口口⑪ |⑧--⑨-⑩|
⑫口⑬口 |--⑪⑫-⑬|
28
口③口④ |①-②-|
口口②口 |③-④-|
口①④口
口口口②

⑥口口口
口⑧口口
口⑥口口 |⑤-⑥-|
⑧⑤⑦口 |⑦-⑧-|
29
⑥③①④ |①-②-|
口⑧②口 |③-④-|
口⑥④口 |⑤-⑥-|
⑧⑤⑦② |⑦-⑧-|
30
口⑤③① |---①-②|
口口口口 |③-④⑤-⑥|
口⑥④②
口口口口

⑦口口口
⑦⑨口⑧
口口口⑩ |⑦--⑧-⑨|
⑪⑨⑫⑧ |--⑩⑪-⑫|
31
⑤⑤口口 |①-②③-④|
③口④⑥ |⑤--⑥-⑦|
①口②口
口⑦口口

口口⑧口
⑫口⑬口
⑨⑪口⑩ |⑧--⑨-⑩|
口口口口 |--⑪⑫-⑬|
32
①①④口 |①-②-|
口③口② |③-④-|
口口口④
口口②口

口⑥口口
⑧口口⑧
⑥⑤⑦口 |⑤-⑥-|
口⑧口口 |⑦-⑧-|
33
口口口③ |①-②-|
口②①口 |--③-|
口口③口
口口口口

④口口口
⑦⑥⑤⑦
口④口口 |④-⑤-|
⑥口口⑤ |⑥-⑦-|
34
口④③② |①-②-|
口口口口 |③-④-|
口④③②
口①①口

⑥⑨⑨口
口⑦口口
口口口口 |⑤--⑥-⑦|
⑤⑧⑧⑤ |--⑧--⑨|
35
口口口口 |--①②-③|
口⑦④③ |④-⑤⑥-⑦|
⑥⑤②①
口口口口

口口⑪口
⑧口口⑪
口口口口 |⑧--⑨-⑩|
口⑩口⑨ |--⑪-|
36
①口口⑤ |①-②-|
⑥④③口 |③-④-|
④②⑦③ |⑤-⑥-|
⑧口口口 |⑦-⑧-|
37
③口口② |①-②-|
口②③口 |③-④-|
口口口口
口④④①

口⑧⑤⑦
口⑩口⑨
口⑥口口 |⑤-⑥-|
口口口口 |⑦-⑧⑨-⑩|
38
口口口口 |①-②-|
口口②口 |③--④-⑤|
口③①①
④口⑤口

⑨⑦⑦⑨
⑥口口口
口口⑧⑧ |⑥--⑦-⑧|
口口口口 |--⑨-|
39
口⑧口口 |--①-|
④口①④ |②-③-|
口②口⑥ |④-⑤-|
⑤⑦③⑤ |--⑥⑦-⑧|
40
⑥口③⑨ |--①②-③|
⑦⑫⑫④ |--④⑤-⑥|
①⑤⑧口 |--⑦⑧-⑨|
⑪口②⑩ |--⑩⑪-⑫|
41
口③③口 |①---|
④口口④ |②-③-|
⑤②②⑤ |--④-|
⑥①①⑥ |⑤-⑥-|
42
①③①③ |①-②-|
口④②口 |③-④-|
口①③口
口口口口

口⑧⑦口
⑦口口⑧
口口口⑥ |⑤--⑥-⑦|
⑤⑤⑤⑤ |--⑧-|
43
口口口口 |--①-|
口口口口 |--②-|
口口口②
①①①①

口口口口
口⑤④口
③口口口 |③-④-|
口⑥⑥口 |⑤-⑥-|
44
口③①口 |①-②-|
②口口④ |③-④-|
③①③①
口口口口

⑤⑧⑧⑦
口⑦⑤口
口口口⑥ |⑤--⑥-⑦|
口口口口 |--⑧-|
45
口口口口 |--①-|
口口口口 |--②-|
口口口②
①①①①

口口口口
⑤口口④
③口口口 |③-④-|
口⑥⑥口 |⑤-⑥-|
46
③①③① |①-②-|
口②④口 |③-④-|
口③①口
口口口口

口⑦⑧口
⑧口口⑦
⑥口口口 |⑤--⑥-⑦|
⑤⑤⑤⑤ |--⑧-|
47
口口口口 |--①-|
口口⑤口 |--②-|
②④③② |--③-|
①①①① |④-⑤-|
48
②③③② |①-②-|
口①口口 |--③-|
口口口口
口口口口

口口口口
口⑤④口
⑤口口④ |--④-|
口⑥⑥口 |⑤-⑥-|
49
④口口④ |①--②③-|
口⑤⑥口 |④--⑤⑥-|
口③②口
①口口①

口⑧⑦口
口口口口
⑦⑨⑨⑧ |⑦-⑧-|
口⑦⑧口 |⑨---|
50
口口口① |①-②-|
①③口口 |③-④-|
口口口③
④②口口

⑤口⑤口
⑦口⑦口
⑧口⑧口 |⑤--⑥-⑦|
口口口⑥ |--⑧-|
51
口④口② |①-②-|
⑥口口⑤ |③-④⑤-⑥|
⑥④口②
口①①③

口口⑨⑨
口⑧⑧口
口口⑦口 |⑦-⑧-|
⑩⑩口口 |⑨-⑩-|
52
①口口口 |①-②-|
口口③① |③-④-|
③口口口
口口②④

口⑤口⑤
口⑦口⑦
口⑧口⑧ |⑤--⑥-⑦|
⑥口口口 |--⑧-|
53
②口④口 |①-②-|
⑤口口⑥ |③-④⑤-⑥|
②口④⑥
③①①口

⑨⑨口口
口⑧⑧口
口⑦口口 |⑦-⑧-|
口口⑩⑩ |⑨-⑩-|
54
口口口① |①-②-|
①③口口 |③-④-|
口口口③
④②口口

⑤口⑤口
⑦口⑦口
⑧口⑧口 |⑤--⑥-⑦|
口口口⑥ |--⑧-|
55
口④口② |①-②-|
⑥口口⑤ |③-④⑤-⑥|
⑥④口②
口①①③

口口⑨⑨
口⑧⑧口
口口⑦口 |⑦-⑧-|
⑩⑩口口 |⑨-⑩-|
56
①口口口 |①-②-|
口口③① |③-④-|
③口口口
口口②④

口⑤口⑤
口⑦口⑦
口⑧口⑧ |⑤--⑥-⑦|
⑥口口口 |--⑧-|
57
②口④口 |①-②-|
⑤口口⑥ |③-④⑤-⑥|
②口④⑥
③①①口

⑨⑨口口
口⑧⑧口
口⑦口口 |⑦-⑧-|
口口⑩⑩ |⑨-⑩-|
58
口口①① |①---|
口口口口 |----|
口口口口 |----|
①①口口 |----|

accuracy: 99.5%
最終更新:2023年06月17日 03:32