アットウィキロゴ
ミカヅキ:コネクト
かゆき

EXTREME

Level: 9.7
BPM: 160
Notes(hold): 671(15)

1
□□□□ |----|
□□□□ |----|
□□□□ |----|
□□□□ |----|
2
①□□③ |①---|
□□□□ |②-③-|
□□②□ |--④-|
③□□① |⑤---|

⑤□□□
□□□□
□④□□
□□□⑤
3
□□□② |①-②-|
□①③□ |--③-|
□□□□ |④-⑤-|
②□□□ |--⑥-|

④□⑤⑥
□□□⑤
□□□□
⑥□□④
4
①□□□ |----|
□□□□ |①-②-|
□②□ |----|
□□□□ |----|
5
□□②□ |----|
□□□② |--①-|
③□①□ |②--③|
□③□□ |--④-|

④□□∨
□□□□
□□□□
∧□□④
6
①□□□ |----|
□①□ |--①-|
□①□< |----|
□□□① |----|
7
□③②① |--①-|
□□⑥□ |②-③-|
□⑥□□ |④-⑤-|
□⑥⑤④ |⑥---|
8
①⑤②④ |①--②|
⑤①④② |--③-|
⑥□□⑥ |④--⑤|
③□□③ |--⑥-|
9
①□②□ |①--②|
□①□② |---③④⑤|
□④③□ |⑥---|
⑦⑥⑤⑦ |⑦---|
10
①□□① |①---|
□④③② |--②③|
□⑥⑤□ |④---|
□□⑦□ |---⑤⑥⑦|
11
□④③□ |①--②|
□⑥⑤□ |---③④⑤|
②□□② |⑥---|
⑦①□⑦ |⑦---|
12
⑪⑩⑨⑧ |①---|
⑤⑥⑦□ |--②③|
□④③② |④⑤⑥⑦|
□①①□ |⑧⑨⑩⑪|
13
□□□□ |①--②|
⑦□□① |---③④⑤|
②④③⑧ |⑥--⑦|
□⑥⑤□ |--⑧-|
14
□□□□ |①--②|
□④③□ |--③-|
□②④□ |----|
①□□□ |--④-|
15
②□□① |①---|
□□③□ |--②-|
□③□□ |③---|
①□□② |----|
16
□□③□ |①--②|
□□□③ |--③-|
①□□② |-④--|
□①②□ |⑤--⑥|

□□□④
□□④□
⑥⑤□□
⑤⑥□□
17
⑦□②⑦ |--①-|
□④③② |-②--|
□⑥⑤① |③④⑤⑥|
□□①□ |⑦---|
18
□□②□ |----|
□④□① |--①-|
③□□□ |②-③-|
□□□⑤ |④-⑤-|
19
④□□□ |----|
□□□③ |--①-|
□□□□ |②--③|
□①②□ |--④-|
20
□□∨□ |①---|
□①□□ |②-③-|
□□□② |----|
□□③□ |----|
21
□∨②③ |----|
□□③② |①---|
④□□< |②--③|
①④①□ |--④-|
22
□□②① |----|
□□□③ |----|
②□□□ |--①-|
□②□□ |②-③-|
23
□⑥⑥ |----|
□②①⑥ |--①-|
□⑤③□ |②-③-|
④□□∧ |④⑤-⑥|
24
□□□□ |----|
□□□□ |----|
□□□□ |----|
□□□□ |----|
25
④□①□ |--①-|
□⑤③① |②-③-|
□②⑥□ |④-⑤-|
①□□⑦ |⑥-⑦-|
26
□⑥□① |----|
⑥□□□ |--①-|
②□⑤④ |②-③-|
□□③□ |④⑤-⑥|
27
⑥□⑥① |--①-|
□⑦□⑦ |②③④⑤|
⑧□⑧□ |⑥--⑦|
②③④⑤ |--⑧-|
28
□□□④ |----|
③②①□ |--①②|
⑤□□□ |③-④-|
□□□⑥ |⑤-⑥-|
29
①□□□ |--①-|
□□□□ |②-③-|
□□□② |④--⑤|
③□□□ |--⑥-|

⑥□④⑤
□□⑤④
□□□□
□□□⑥
30
□□□□ |--①-|
□□□□ |②-③-|
③□□□ |--④⑤|
□①②□ |⑥⑦⑧-|

□□□□
⑦⑥⑤④
□□□□
□⑧□□
31
③□□① |--①-|
⑤□□④ |--②-|
□□③□ |③--④|
②④⑤□ |--⑤-|
32
□□□□ |----|
□⑨⑧⑦ |--①②|
□③②① |③-④⑤|
④⑤⑥□ |⑥⑦⑧⑨|
33
①□□□ |①--②|
□□□□ |③④⑤⑥|
③④⑤⑥ |⑦⑧⑨⑩|
□□□② |⑪---|

⑪□⑧⑦
□□□□
□□□□
⑩⑨□□
34
□③□□ |①--②|
□□②① |--③-|
□③□□ |-④--|
□□②① |⑤--⑥|

⑥□④□
□□□⑤
⑥□④□
□□□⑤
35
□□□② |--①-|
□⑥②□ |②-③-|
□③⑤□ |--④-|
③①①④ |⑤-⑥-|
36
①□□③ |①--②|
□□②□ |--③-|
□②□□ |---④--⑤-⑥-⑦-|
□①③□ |⑧--⑨|

□⑧⑧□
⑤⑨⑨□
⑥□④□
⑦□□□
37
⑦□□⑧ |--①②|
⑧□□⑦ |③④⑤⑥|
⑥⑤④③ |⑦---|
□□②① |⑧---|
38
④③①□ |①-②③|
□□□□ |--④-|
□②□□ |⑤⑥--|
④③①□ |⑦-⑧⑨|

□⑨⑦⑥
□□□□
□⑧□⑤
□⑨⑦⑥
39
①□□□ |----|
□□□② |--①-|
③□□④ |②-③-|
□□⑤□ |④⑤-⑥|

□⑥□<
⑥□□□
□□□□
∧□□□
40
□①□∨ |----|
①□□□ |----|
□□①② |----|
□②□ |①--②|
41
④□④□ |--①-|
□③⑤□ |②-③-|
②①⑥④ |④-⑤-|
□□④□ |⑥---|
42
⑤①□□ |①-②-|
①□⑥□ |③-④⑤|
②④□③ |----|
⑦②③⑤ |⑥-⑦-|
43
□□②③ |①---|
□①④② |②---|
□⑤①□ |③-④-|
□□□□ |⑤---|
44
⑤①□□ |①-②-|
①□④□ |③-④⑤|
②□□③ |----|
□②③⑤ |⑥-⑦-|

□□□□
⑥□□□
□⑦□□
□□□□
45
□□③⑥ |①---|
□⑦□② |②-③-|
④□⑧□ |④-⑤-|
□⑤①□ |⑥-⑦⑧|
46
□□□④ |----|
③□□□ |--①-|
□⑤□② |②-③-|
①□⑥□ |④-⑤⑥|
47
①⑥⑥□ |--①-|
□④⑦② |②-③-④-⑤--⑥--|
⑤⑧③□ |--⑦-|
□⑩□⑨ |⑧-⑨⑩|
48
②□□⑥ |----|
□□□③ |--①-|
④⑥□□ |②-③-|
①□□⑤ |④-⑤⑥|
49
□□□□ |---①|
□②①□ |--②-|
□□③□ |③---|
①□□□ |----|
50
⑤①□⑩ |①-②-|
①⑧⑦⑥ |③-④⑤|
②④⑨③ |⑥⑦⑧⑨|
⑪②③⑤ |⑩-⑪-|
51
⑤□④⑧ |①-②③|
③□⑨④ |④⑤⑥⑦|
①⑩□② |⑧-⑨-|
⑪①⑦⑥ |⑩-⑪-|
52
⑤①□□ |①-②-|
①□④□ |③-④⑤|
②□□③ |⑥⑦⑧⑨|
□②③⑤ |⑩-⑪-|

□□□⑨
⑩⑧□⑥
□⑪⑦□
□□□□
53
□⑤④⑧ |①-②③|
⑦⑨□⑥ |④-⑤-|
⑤□⑩④ |⑥-⑦-|
②③①□ |⑧-⑨⑩|
54
②⑪①⑤ |①-②-|
⑪⑨□⑥ |③-④-|
□□⑩⑦ |⑤⑥⑦⑧|
④□③⑧ |⑨⑩-⑪|
55
⑦⑨⑥② |--①-|
□□③⑥ |②-③-④-⑤--⑥--|
⑨④□⑩ |⑦-⑧-|
⑤①⑩⑧ |⑨--⑩|
56
□□□④ |----|
①□③□ |①-②③|
□⑤②□ |----|
□①□□ |④-⑤-|
57
①③②④ |①--②|
□⑦⑩⑤ |--③-|
⑧⑪⑥⑨ |④⑤⑥⑦|
①③②④ |⑧⑨⑩⑪|
58
□⑤③□ |①---|
①□□□ |②---|
□□□④ |③---|
□②□□ |④--⑤|
59
□□□□ |--①-|
□④①□ |--②-|
□□③□ |--③-|
②□□□ |④---|
60
□⑤③□ |①---|
①□□□ |②---|
□□□④ |③---|
□②□□ |④--⑤|
61
□□□□ |----|
□②□□ |--①-|
□□①□ |②---|
□□□□ |----|
62
□□□① |①---|
②□□□ |②---|
□□□③ |③---|
④□□□ |④---|
63
□③□③ |①--②|
④□④□ |--③-|
□①②□ |④---|
⑤②①⑤ |⑤---|
64
⑤⑥③② |①-②③|
□⑦⑦□ |----|
①□□④ |④-⑤⑥|
□①④□ |--⑦-|
65
④□①□ |①--②|
□□□① |--③-|
②□③□ |④---|
□②□④ |----|
66
□④□③ |①-②-|
⑥⑦①□ |③-④-|
⑤②□∧ |⑤--⑥|
⑥⑦□□ |--⑦-|
67
②□⑬① |①-②-|
⑪⑫□⑬ |③④⑤⑥|
⑥⑤④③ |⑦⑧⑨⑩|
⑩⑨⑧⑦ |⑪⑫-⑬|
68
③□③□ |----|
□□□□ |--①-|
①②□□ |②---|
②①□□ |--③-|
69
□⑪⑩⑨ |--①-|
⑤④③② |②③④⑤|
⑦⑧□⑥ |⑥-⑦⑧|
□①□① |⑨⑩⑪-|
70
⑧□□□ |①②③④|
④⑦□② |⑤⑥⑦⑧|
□□□⑥ |⑨⑩⑪⑫|
③□⑤① |⑬⑭⑮⑯|

□⑭□⑨
□□⑪⑮
⑩⑫□□
⑯□□⑬
71
□□⑤□ |①②③④|
②⑧□□ |⑤⑥⑦⑧|
⑥□①③ |⑨--⑩|
□④⑦□ |--⑪-|

⑨□□□
⑪□⑩□
□⑩□⑪
□□□⑨
72
②□④① |①---|
□③⑥⑤ |--②-|
④⑥②□ |③-④-|
①⑤□③ |⑤-⑥-|
73
④③□① |①--②|
③□□□ |--③-|
□□□② |④---|
①□②④ |----|
74
□□□□ |①--②|
□②□□ |--③-|
①□②③ |-④--|
□①③□ |⑤--⑥|

□⑥□□
⑥□④□
⑤④□□
□⑤□□
75
⑦□②⑦ |--①-|
□④③② |-②--|
□⑥⑤① |③④⑤⑥|
□□①□ |⑦---|
76
⑥②④□ |①--②|
①□⑤③ |--③-|
②⑤□④ |-④--|
⑥①③□ |⑤--⑥|
77
□②□① |--①-|
□□□□ |-②--|
□□□□ |③--④|
□②□① |--⑤-|

④□③⑤
□□□□
□□□□
④□③⑤
最終更新:2021年06月21日 04:25