アットウィキロゴ
Couleur=Blanche
#FFFFFF

ADVANCED

Level: 10.3
BPM: 90-185
Notes(hold): 849(74)
★All BPMs listed here are estimates.

1
口口口口 |----|
口口口口 |----|
口口口口 |----|
口口口口 |----|
2
口口口口 |①---|
口①②口 |②---|
口④③口 |③---|
口口口口 |④---|
3
④③②① |①-②-|
口①③口 |③-④-|
口⑥⑤口 |⑤---|
口口口口 |⑥---|
4
⑤⑥⑦口 |①-②-|
口①③④ |③-④-|
③⑦⑤口 |⑤-⑥-|
口口口② |⑦---|
5
口口口口 |①-②-|
口①③口 |③-④-|
口⑥⑤口 |⑤---|
①②③④ |⑥---|
6
⑧口口⑦ |①-②-|
⑥①③⑤ |③-④-|
④⑦⑤③ |⑤-⑥-|
②口口口 |⑦-⑧-|
7
口口口口 |①-②-|
口①③口 |③-④-|
口⑥⑤口 |⑤---|
④③②① |⑥---|
8
口口口⑤ |①-②-|
⑥①③④ |③-④-|
③⑦⑤⑦ |⑤-⑥-|
⑧口口② |⑦-⑧-|
9
①②③④ |①-②-|
口①③口 |③-④-|
口⑥⑤口 |⑤---|
口口口口 |⑥---|
10
口⑤②口 |①-②-|
③①③⑥ |③-④-|
口⑦⑤口 |⑤-⑥-|
口⑦④口 |⑦---|
11
①口口② |①---|
口①②口 |②---|
口④③口 |③---|
④口口③ |④---|
12
①①口② |①---|
口①②② |②---|
④④③口 |③---|
④口③③ |④---|
13
①②③④ |①②③④|
⑫⑬⑭⑤ |⑤⑥⑦⑧|
⑪⑯⑮⑥ |⑨⑩⑪⑫|
⑩⑨⑧⑦ |⑬⑭⑮⑯|
14
①口口① |①---|
口③口口 |----|
口口②口 |---②|
口口口口 |③---|
15
口①∨口 |①---|
>╋╋①
①╋╋<
口∧①口

口②口口
口口口② |--②-|
②口口口
口口②口

口∨③口
③╋╋<
>╋╋③ |③---|
口③∧口

口口④口
④口口口
口口口④
口④口口 |--④-|
16
口口口口 |①---|
口①━<
>━①口
口口口口

口口口口
口②口⑤ |--②-|
口口②口 |③--④|
③④口③ |⑤---|
17
>①∨口 |①---|
①口①口
∧①<口
口口口口

口②口口
②口②口 |--②-|
口②口口
口口口口

③<③口
∨口∧口
③>③口 |③---|
口口口口

④口④口
口口口口
④口④口
口口口口 |--④-|
18
口口口口 |①---|
口>━①
口口口口
口①━<

口口⑤口
③口③② |--②-|
④口口口 |③--④|
口②口口 |⑤---|
19
>━━① |①---|
口①<口
口>①口
①━━<

口口口②
口②口口 |--②-|
口口②口
②口口口

③━━<
口>③口
口③<口 |③---|
>━━③

④口口口
口口④口
口④口口
口口口④ |--④-|
20
口①①口 |①---|
口∧∧口
口∨∨口
口①①口

口②②口
口口⑤口 |--②-|
③④③口 |③--④|
口②②口 |⑤---|
21
①━━< |①---|
①━━<
>━━①
>━━①

②口口口
②口口口 |--②-|
口口口②
口口口②


口口口④
口口口④
④口口口
④口口口 |--④-|
22
②⑪⑪⑨ |--①②|
④⑥⑦口 |③④⑤⑥|
口⑧口③ |⑦⑧⑨⑩|
⑩口⑤① |⑪---|
23
①口口⑥ |①-②-|
口∨⑤② |③-④-|
口┃③⑥ |--⑤-|
口④口① |⑥---|
24
①⑤③口 |①---|
②④⑤口 |②-③-|
口口口口 |--④-|
口⑤口口 |⑤---|
25
⑥口口① |①-②-|
②⑤∨口 |③-④-|
⑥③┃口 |--⑤-|
口口④口 |⑥---|
26
口③⑤① |①---|
口⑤④② |②-③-|
口口口口 |--④-|
口口⑤口 |⑤---|
27
∨口⑥口 |①-②-|
┃口口⑥ |③-④-|
④③②① |--⑤-|
口口⑤口 |⑥---|
28
①口口③ |①---|
口口③口 |②-③-|
⑤口②⑤ |--④-|
口④口⑤ |⑤---|
29
①②③④ |①-②-|
口⑥口┃ |③-④-|
⑥口口∧ |--⑤-|
口⑤口口 |⑥---|
30
①③口⑤ |①---|
④口③口 |②-③-|
口②⑤口 |--④-|
口⑤口口 |⑤---|
31
∨口②⑥ |①-②-|
┃③⑤① |③-④-|
④口口⑤ |--⑤-|
口口①口 |--⑥-|
32
①口口口 |①---|
口口口② |②-③-|
②口③口
口口口口

口⑤口∨ |①---|
④口⑥┃ |②-③-|
口口口⑦ |④-⑤-|
口④口口 |⑥-⑦-|
33
③口口② |--①-|
④①口口 |②---|
①⑤口④ |③---|
口口口口 |④-⑤-|
34
∨口②⑤ |①-②-|
┃③口① |③-④-|
④口⑤口 |(180)⑤---|
口口①口 |(170)----|
35
口口①口 |(160)①---|
口口②② |(155)----|
③口口① |②---|
口口③③ |(140)③---|
36
⑤②口∨ |(130)①-②-|
①口③┃ |(125)③-④-|
口⑤口④ |(120)⑤---|
口①口口 |(115)----|
37
口①口口 |(105)①---|
②②口口 |(100)----|
①口口③ |(95)②---|
口③③口 |(90)③---|
38
①━<口 |①---|
①━<口 |----|
①━<口
①━<口

口①━<
口口口口
口①━<
口口口口

②②口口
②口口口
②②口口 |②---|
②口口口|----|
39
口口口① |(100)①---|
②口口┃ |(110)②---|
口口口┃
>①口∧

口口⑤口
口③口口
口∧④口 |(120)③-④-|
口③口口 |(130)⑤---|
40
口口口口 |①---|
口①口口
口口口口
口口①<

口口口口
口口口口 |②---|
②口口口
∧口②口

口口口口
口④口口
③>③口 |(140)③-④-|
口口口口

口口口⑤
口口⑤口
口口⑤口
口口口口 |⑤---|
41
①━━< |(150)①-②-|
口③⑤② |③④--|
⑧④⑦⑤ |(160)⑤--⑥|
⑥口口① |⑦-⑧-|
42
⑤口①① |(170)①---|
口⑤口① |②---|
口口④口 |(180)③-④-|
口②②③ |⑤---|
43
∨④⑤口 |(190)①---|
┃口③口 |②-③-|
┃②口⑤ |(200)④---|
①口口口 |⑤---|
44
口口口口 |(210)①-②-|
④口③口 |③---|
口②口⑤ |(220)④---|
⑤口①口 |⑤---|
45
①②口口 |(230)①---|
⑤口③口 |②---|
口④口口 |③-④-|
>━━① |⑤---|
46
③⑤①口 |(240)①-②-|
口口⑥口 |③-④-|
②⑦④口 |(265)⑤-⑥-|
口口⑧⑦ |⑦-⑧-|
47
口口⑦⑤ |(280)①-②-|
②口口③ |③-④-|
④口口① |(290)⑤-⑥-|
⑥⑧口口 |⑦-⑧-|
48
口口口口 |(305)①---|
>━①口 |----|
口①━< |----|
口口口口 |----|

口口∨口
口①┃口
口┃①口
口∧口口
49
口口口口 |----|
口口口口 |----|
口口口口 |----|
口口口口 |----|
50
口口口口 |----|
口口口口 |----|
口口口口 |----|
口口口口 |----|
51
口口口口 |----|
①①①① |----|
口①①口 |(185)①---|
口口口口 |----|
52
⑤口①口 |①--②|
口⑥口口 |--③-|
②口⑦① |④-⑤-|
④口③口 |⑥-⑦-|
53
口②②④ |①-②-|
口口⑤口 |-③--|
①⑥口口 |④-⑤-|
⑦③③口 |⑥-⑦-|
54
口口⑥口 |①--②|
⑤口口③ |--③-|
②口④口 |④--⑤|
口口口① |--⑥-|
55
口口口③ |①-②-|
口④口口 |③--④|
口①口口
口口②口

口口口口
口口口口
口⑦⑤口 |--⑤-|
⑥口口口 |⑥-⑦-|
56
口①口⑤ |①--②|
口口⑥口 |--③-|
①⑦口② |④-⑤-|
口③口④ |⑥-⑦-|
57
口②②口 |①-②-|
口⑤口⑦ |-③--|
④口⑥① |④-⑤-|
口③③口 |⑥-⑦-|
58
④━━< |①-②-|
口口③口 |③-④-|
口②口口
口口口①

⑤口口口
口口口口
口口⑦口 |--⑤-|
⑥口口口 |⑥-⑦-|
59
>━━② |①-②-|
口①口口
口口口口
口口口口

口口口③
④口口⑤ |--③-|
口口⑥口 |④-⑤-|
口⑦口口 |⑥-⑦-|
60
⑤口①口 |①--②|
④⑥④口 |--③-|
②口⑦① |④-⑤-|
口口③口 |⑥-⑦-|
61
口②②④ |①-②-|
④口⑤口 |-③--|
①⑥口① |④-⑤-|
⑦③③口 |⑥-⑦-|
62
口④⑥口 |①--②|
⑤①口③ |--③-|
②口④口 |④--⑤|
口口口① |--⑥-|
63
口口口③ |①-②-|
口④口口 |③--④|
口①口①
口口②口

口口口口
口口口口
口⑦⑤口 |--⑤-|
⑥口口口 |⑥-⑦-|
64
口①口⑤ |①--②|
口④⑥④ |--③-|
①⑦口② |④-⑤-|
口③口口 |⑥-⑦-|
65
口②②⑦ |①-②-|
口⑥口口 |-③--|
①口⑤① |④-⑤-|
④③③口 |⑥-⑦-|
66
⑤③①⑦ |①-②-|
④⑥⑧口 |③-④-|
③⑦⑤② |⑤-⑥-|
口口口口 |⑦-⑧-|
67
口口⑤口 |①②③④|
口⑧口口 |⑤⑥⑦⑧|
⑥口⑦口
④③②①

⑭口口口
⑩口⑬⑨
口⑫口⑪ |⑨⑩⑪⑫|
口⑯⑮口 |⑬⑭⑮⑯|
68
口②口① |①--②|
④⑤⑥⑦ |--③-|
∨口③口 |④-⑤-|
①口口口 |⑥-⑦-|
69
①⑤⑤② |--①-|
③⑤口口 |-②--|
①⑤⑤② |③-④-|
④⑤口④ |⑤---|
70
①口口口 |①--②|
口口②口 |--③-|
①口口口
口口③口

口口口口
⑦⑤口⑥
⑦口口⑥ |④-⑤-|
④口口口 |⑥-⑦-|
71
②口口① |--①-|
口③③口 |-②--|
⑧⑦⑥⑤ |③-④-|
②④④① |⑤⑥⑦⑧|
72
②口③⑤ |①--②|
口口口③ |--③-|
⑥口口⑥ |④--⑤|
④口口① |--⑥-|
73
⑥⑤⑥口 |①-②-|
④①③口 |③--④|
口⑤④口 |--⑤-|
⑦③⑦② |⑥-⑦-|
74
口口口① |①--②|
口②口口 |--③-|
口口口①
口③口口

口口口口
⑥口⑤⑦
⑥口口⑦ |④-⑤-|
口口口④ |⑥-⑦-|
75
①④④② |--①-|
⑤口⑦口 |-②--|
口⑥口⑧ |③-④-|
①③③② |⑤⑥⑦⑧|
76
④口口口 |①-②-|
口③口① |③-④-|
口口②口
①口④口

口⑦⑤口
口口口口
⑥口口口 |⑤-⑥-|
⑧口口⑦ |⑦-⑧-|
77
⑦口⑤⑦ |①-②-|
②⑧②④ |③-④-|
⑤①⑨③ |⑤-⑥-|
口口⑥⑩ |⑦⑧⑨⑩|
78
口⑦④口 |①--②|
②口①口 |③-④-|
⑥③⑧④ |⑤-⑥-|
①⑤⑤口 |⑦-⑧-|
79
③口口② |①-②-|
①④④口 |-③--|
⑨⑧⑦⑥ |④-⑤-|
③⑤⑤② |⑥⑦⑧⑨|
80
②④口⑥ |①--②|
④⑦口③ |③-④-|
⑧口口⑧ |⑤--⑥|
⑤口口① |⑦-⑧-|
81
③口④口 |①-②-|
④口②③ |③--④|
口③④口
口①口口

口⑥口⑥
口⑤口口
口口口口 |--⑤-|
⑤⑦⑤⑦ |⑥-⑦-|
82
②口口口 |①--②|
口口口④ |③-④-|
①④③①
口口口口

口口⑥口
⑤⑦口口
⑧口口口 |⑤-⑥-|
口口口口 |⑦-⑧-|
83
②口口③ |①-②-|
口口①口 |-③--|
口口口口
②口口③

口⑤⑤口
⑥⑦⑧⑨
口口口口 |④-⑤-|
口④④口 |⑥⑦⑧⑨|
84
①口⑦② |①-②-|
口⑧口口 |③-④-|
④①③⑦ |⑤-⑥-|
⑧⑥④⑤ |⑦-⑧-|
85
③⑤口① |①②③④|
口口口⑦ |⑤⑥⑦⑧|
⑧②④口
口口⑥口

口口⑪⑯
⑩⑬口口
口口口⑭ |⑨⑩⑪⑫|
⑮⑫口⑨ |⑬⑭⑮⑯|
86
②口口口 |①---|
口口①③ |②---|
②①②口 |③---|
口③口③ |----|
87
②①口口 |①---|
①②①口 |----|
②①口① |②---|
②②①口 |----|
88
口②②① |①---|
口口口① |----|
口口口① |②---|
口②②① |----|
89
⑥口口⑦ |①②③④|
①②③① |⑤⑥⑦⑧|
①④⑤①
口⑧口口

口⑩⑪口
⑭口口口
⑯口口⑮ |⑨⑩⑪⑫|
⑫口⑨⑬ |⑬⑭⑮⑯|
90
⑥口口口 |①②③④|
口②④① |⑤⑥⑦⑧|
口⑤③口
口⑧⑦口

口⑩⑬⑨
⑭口口口
⑯口口⑮ |⑨⑩⑪⑫|
⑫口口⑪ |⑬⑭⑮⑯|
91
口∨口口 |①---|
口②口① |----|
口口②口 |②---|
口口∧口 |----|

口口口口
口口②<
>②口口
口口口口
92
口口口口 |----|
口口口口 |----|
口口口口 |----|
口口口口 |----|
93
口口口口 |----|
口口口口 |----|
口口口口 |----|
口口口口 |----|
94
口口口口 |①---|
口①①口 |----|
口①①口 |----|
口口口口 |----|
最終更新:2020年04月12日 19:06