アットウィキロゴ
Couleur=Blanche
#FFFFFF

EXTREME

Level: 10.6
BPM: 90-185
Notes(hold): 898(79)
★All BPMs listed here are estimates.

1
口口口口 |----|
口口口口 |----|
口口口口 |----|
口口口口 |----|
2
①口口② |①---|
口口口口 |②---|
口口口口 |③---|
④口口③ |④---|
3
①口口③ |①-②-|
口③①口 |③-④-|
口④②口 |⑤---|
⑥口口⑤ |⑥---|
4
①⑥⑦③ |①-②-|
⑤③口口 |③-④-|
口④②口 |⑤-⑥-|
⑦口口⑤ |⑦---|
5
①口口③ |①-②-|
口③①口 |③-④-|
口④②口 |⑤---|
⑥口口⑤ |⑥---|
6
①④口③ |①-②-|
口③口⑧ |③-④-|
⑤口②⑥ |⑤-⑥-|
⑦口⑦⑤ |⑦-⑧-|
7
①口①③ |①-②-|
口口②口 |③-④-|
口③口口 |⑤---|
⑥④口⑤ |⑥---|
8
①⑥口③ |①-②-|
口③⑦口 |③-④-|
⑤④②口 |⑤-⑥-|
⑦口⑧⑤ |⑦-⑧-|
9
①口①③ |①-②-|
口④口口 |③-④-|
口口②口 |⑤---|
⑥③口⑤ |⑥---|
10
①口②③ |①-②-|
⑥③口口 |③-④-|
口口④口 |⑤-⑥-|
⑦⑤⑦⑤ |⑦---|
11
①⑤口③ |①-②-|
口⑥①⑨ |③④⑤-|
口②④口 |⑥--⑦|
⑧口⑦⑥ |⑧-⑨-|
12
①口①④ |①-②③|
口⑤⑥口 |④⑤⑥-|
口②③口
口口口口

口口⑫口
⑧口口口
口口口⑨ |⑦⑧⑨⑩|
⑪⑩口⑦ |⑪-⑫-|
13
③⑤⑫② |①②③④|
⑪⑦⑯⑥ |⑤⑥⑦⑧|
①⑮⑭⑩ |⑨⑩⑪⑫|
⑬⑨④⑧ |⑬⑭⑮⑯|
14
⑤③⑩⑥ |①②③④|
⑨⑬⑬④ |⑤⑥⑦⑧|
①⑬⑬⑧ |⑨⑩⑪⑫|
⑪⑦②⑫ |⑬---|
15
口①∨口 |①---|
>╋╋①
①╋╋<
口∧①口

口②口口
口口口② |--②-|
②口口口
口口②口

口∨③口
③╋╋<
>╋╋③ |③---|
口③∧口

口口④口
④口口口
口口口④
口④口口 |--④-|
16
>━━① |①---|
口口口口
口口口口
①━━<

③口口②
口⑤⑤口 |--②-|
口⑤⑤口 |③--④|
②口口④ |⑤---|
17
口①<口 |①---|
∨口口∨
①口口①
口①<口

口②口口
口口口口 |--②-|
②口口②
口②口口

口>③口
③口口③
∧口口∧ |③---|
口>③口

口口④口
④口口④
口口口口
口口④口 |--④-|
18
①━━< |①---|
口口口口
口口口口
>━━①

②口口口
口⑤⑤口 |--②-|
口⑤⑤③ |③--④|
④口口② |⑤---|
19
口∨①口 |①---|
>╋╋①
①╋╋<
口①∧口

口口②口
口口口② |--②-|
②口口口
口②口口

口③∨口
③╋╋<
>╋╋③ |③---|
口∧③口

口④口口
④口口口
口口口④
口口④口 |--④-|
20
>━━① |①---|
口口口口
口口口口
①━━<

口口口②
口⑤⑤口 |--②-|
③⑤⑤口 |③--④|
②口④口 |⑤---|
21
①∨①∨ |①---|
┃┃┃┃
┃┃┃┃
∧①∧①

②口②口
口口口口 |--②-|
口口口口
口②口②


口④口④
口口口口
口口口口
④口④口 |--④-|
22
①口⑥⑩ |--①②|
口⑤②口 |③④⑤⑥|
口③④口 |⑦⑧⑨⑩|
⑨⑦⑧口

口⑪口口
口┃口口
口┃口口
口∧口口 |⑪⑫--|

口⑫口口
口口口口
口口口口
口口口口
23
口口口口 |①-②-|
口口①口
口口②口
口口口①

③口口⑥
口④<口 |③-④-|
口③口口 |--⑤-|
口口⑤口 |⑥---|
24
口口口口 |①---|
口口口①
>━━①
口口口口

口口②④
口④口口 |②---|
口口口② |--③-|
口口③口 |④---|
25
口口⑥口 |①-②-|
口口②① |③-④-|
口③①口 |--⑤-|
③④<⑤ |⑥---|
26
口口口口 |①---|
>━━①
口口口①
口口口口

口口④口
口口口② |②---|
口口②口 |--③-|
口④口③ |④---|
27
口①⑥① |①-②-|
口口②口 |③-④-|
口④<口 |--⑤-|
③口③⑤ |⑥---|
28
口口口口 |①---|
>━━①
口口口①
口口口口

口口④口
口口口② |②---|
口④口口 |--③-|
口口②③ |④---|
29
口④<① |①-②-|
口①②口 |③-④-|
③口口口
口口③口

口口⑥口
口口口口
口口口口 |--⑤-|
口口口⑤ |⑥---|
30
口口口口 |①---|
口口口①
>━━①
口口口口

口④③②
口④④口 |②---|
口④④② |---③|
口口口口 |④---|
31
③口口口 |①-②-|
④<口① |③-④-|
③⑤⑤② |--⑤-|
口⑥⑥① |--⑥-|
32
口口口口 |①---|
口口①口
口口口口
口口口口

口④⑤④
②③口② |②-③-|
③∨口② |④-⑤-|
⑥⑦⑥口 |⑥-⑦-|
33
口口口口 |--①-|
口口①① |②---|
口口②②
口口口口

口③④④
口⑤口口
口⑤口口 |③---|
口④口口 |④-⑤-|
34
①⑤口口 |①-②-|
②口口③ |③-④-|
①口>④ |(180)⑤---|
口口口③ |(170)----|
35
口口口口 |(160)①---|
口②口口 |(155)----|
口口口③ |②---|
①口口口 |(140)③---|
36
口③④③ |(130)①-②-|
口⑤∧口 |(125)③-④-|
口口口口 |(120)⑤---|
①②①口 |(115)----|
37
口口③口 |(105)①---|
口口口口 |(100)----|
①②口口 |(95)②---|
口口口口 |(90)③---|
38
①━<口 |①---|
①━<口 |----|
①━<口
①━<口

口①━<
口口口口
口①━<
口口口口

②②口口
②③<④
②②口∧ |②---|
②口>⑤ |③④⑤⑥----|

口口口口
口④口⑤
口口口口
口口口⑥

口∨口口
口┃口口
口┃口口
口⑥口口
39
>━━① |(100)①---|
口口口口
口口口口
①━<口

口口口口
口口口口 |(110)②---|
口口②口
口①口口

口口口口
⑤口④口
③━<口 |(120)③-④-|
③口口口 |(130)⑤---|
40
口口口口 |①---|
口口口口
①口∨口
口口①口

口口口口
口②<口 |②---|
口口口口
口口②口

口口口口
口③口口
④口③< |(140)③-④-|
口口口口

口∨口⑤
⑤┃口口
口┃⑤口
口⑤口口 |⑤---|
41
口口口口 |(150)①-②-|
口口口口 |③④--|
口口口口 |(160)⑤--⑥|
①━━< |⑦---|

口⑤⑤口
口口③④
口②口⑥
口①①⑦
42
口口⑥口 |(170)①---|
口①①⑤ |②---|
口②②④ |(180)③-④-|
⑤口③口 |⑤-⑥-|
43
①④⑤① |(190)①---|
┃④③⑤ |②-③-|
┃③②口 |(200)④---|
∧口口② |⑤---|
44
⑦口口④ |(210)①-②-|
口⑤③⑦ |③-④-|
⑥③②② |(220)⑤-⑥-|
口①①口 |⑦---|
45
口①①∨ |(230)①---|
口口口┃ |②---|
口口口┃
口②②①

口口口③
口口④口
口口⑤口 |③-④-|
口口口口 |⑤---|
46
⑤②口口 |(240)①-②③|
⑥③⑨口 |④-⑤⑥|
⑦④口口 |(265)⑦-⑧-|
①⑩⑧⑨ |⑨-⑩-|
47
⑥④⑦③ |(280)①-②-|
口口口⑤ |③-④-|
⑧口口① |(290)⑤-⑥-|
②口口口 |⑦-⑧-|
48
口口∨口 |(305)①---|
口①┃口 |----|
口┃①口 |----|
口∧口口 |----|

口口口口 |----|
>━①口 |----|
口①━< |----|
口口口口 |----|
49
口口口口 |----|
口口口口 |----|
口口口口 |----|
口口口口 |----|
50
口口口口 |----|
口口口口 |----|
口口口口 |----|
口口口口 |----|
51
②②②② |----|
口②②口 |----|
口②②口 |②---|
口口口口 |----|
52
口⑤口口 |①--②|
⑥口口① |--③-|
④⑦口② |④-⑤-|
口口口③ |⑥-⑦-|
53
④口口② |①-②-|
口⑤口口 |-③--|
⑥口③口 |④-⑤-|
口⑦①口 |⑥-⑦-|
54
口⑥口口 |①--②|
口⑤口③ |--③-|
口④口② |④--⑤|
口口口① |--⑥-|
55
口口③① |①-②-|
⑥口④口 |③--④|
口⑦②口 |--⑤-|
口⑤口口 |⑥-⑦-|
56
口⑤口口 |①--②|
⑥口口① |--③-|
④⑦口② |④-⑤-|
口口口③ |⑥-⑦-|
57
④口口② |①-②-|
口口⑦口 |-③--|
口⑥③口 |④-⑤-|
⑤口①口 |⑥-⑦-|
58
口④口口 |①-②-|
口口口③ |③-④-|
②口口⑥ |----|
⑤口口① |⑤-⑥-|
59
口③②口 |①-②-|
①口④口 |----|
口⑤口口 |③-④-|
口口⑥口 |⑤-⑥-|
60
口⑤口口 |①--②|
⑦口⑥① |--③-|
④⑧④② |④-⑤⑥|
①口口③ |⑦-⑧-|
61
口口口② |①-②-|
口口口口 |-③--|
口口③口
口①①口

④口④口
口⑤⑥口
⑦口口口 |④-⑤⑥|
口⑧口口 |⑦-⑧-|
62
口⑥口口 |①--②|
口⑤口③ |--③-|
口④口② |④--⑤|
①口④① |--⑥-|
63
①⑧③① |①-②-|
⑥口⑤口 |③④-⑤|
④⑩②口 |⑥-⑦⑧|
口⑦⑨口 |⑨-⑩-|
64
口⑥口口 |①--②|
⑦③⑦① |③-④-|
⑤⑧⑤② |⑤-⑥-|
①口口④ |⑦-⑧-|
65
⑤口⑤② |①-②-|
口③⑧口 |③④--|
口⑦④⑦ |⑤-⑥-|
⑥①①口 |⑦-⑧-|
66
口④口③ |①-②-|
②④口③ |③-④-|
②口口口
口口①①

口口⑤口
口口⑦口
口⑥⑤⑦ |⑤-⑥-|
⑥口⑧口 |⑦-⑧-|
67
③口⑥② |①②③④|
①口口⑧ |⑤⑥⑦⑧|
⑦口口口
口⑤口④

口⑨口⑯
口⑪⑩口
口⑬口⑫ |⑨⑩⑪⑫|
⑮口⑭口 |⑬⑭⑮⑯|
68
①⑤口口 |①--②|
口口口⑥ |--③-|
④⑦②口 |④-⑤-|
口③口口 |⑥-⑦-|
69
④⑦⑦② |①-②-|
口⑦①⑤ |-③--|
⑥⑦⑦口 |④-⑤⑥|
口⑦③口 |⑦---|
70
口口口③ |①--②|
④口①口 |③-④-|
口口口④
①口②①

⑧口⑥口
口⑦口⑤
⑤口口口 |⑤-⑥-|
⑧口口口 |⑦-⑧-|
71
口口口② |①-②-|
口口③口 |-③--|
口③①口
口口口②

口④⑤口
口⑧口⑦
⑥口⑨口 |④-⑤-|
口④⑤口 |⑥⑦⑧⑨|
72
口④口④ |①--②|
③口口口 |③-④-|
口口口②
①口口口

口口⑧口
口口⑥口
口⑦口口 |⑤--⑥|
⑧口口⑤ |⑦-⑧-|
73
③口口④ |①-②-|
②口口口 |③--④|
④口①③
口④③口

口口⑥口
口⑤口⑤
口⑧⑦口 |--⑤-|
口口口口 |⑥-⑦⑧|
74
口口口③ |①--②|
④口①口 |③-④-|
口口口④
①口②①

⑧口⑥口
口⑦口⑤
⑤口口口 |⑤-⑥-|
⑧口口口 |⑦-⑧-|
75
口口口② |①-②-|
口口③口 |-③--|
口③①口
口口口②

口④⑤口
口⑧口⑦
⑥口⑨口 |④-⑤-|
口④⑤口 |⑥⑦⑧⑨|
76
口④⑥④ |①-②-|
③⑧②口 |③-④-|
⑧③口② |⑤-⑥-|
①⑤口⑦ |⑦-⑧-|
77
②口口④ |①-②-|
②口口① |③-④-|
口口①口
口口③口

口⑧⑦口
口口口口
口⑩⑨⑤ |⑤-⑥-|
口⑥口口 |⑦⑧⑨⑩|
78
口口口③ |①--②|
④口①口 |③-④-|
口口口④
①口②①

⑧口⑥口
口⑦口⑤
⑤口口口 |⑤-⑥-|
⑧口口口 |⑦-⑧-|
79
口口口② |①-②-|
口口③口 |-③--|
口③①口
口口口②

口④⑤口
口⑧口⑦
⑥口⑨口 |④-⑤-|
口④⑤口 |⑥⑦⑧⑨|
80
口④口④ |①--②|
③口口口 |③-④-|
口口口②
①口口口

口口⑧口
口口⑥口
口⑦口口 |⑤--⑥|
⑧口口⑤ |⑦-⑧-|
81
③口口④ |①-②-|
②口口口 |③--④|
④口①③
口④③口

口口⑥口
口⑤口⑤
口⑧⑦口 |--⑤-|
口口口口 |⑥-⑦⑧|
82
口②口④ |①-②③|
⑤口①口 |④-⑤-|
口口口⑤
①口③①

⑨口⑦口
口⑧口⑥
⑥口口口 |⑥-⑦-|
⑨口口口 |⑧-⑨-|
83
口口口② |①-②-|
⑤口④口 |③④⑤-|
口④①③
口口口②

口⑥⑦口
口⑩口⑨
⑧口⑪口 |⑥-⑦-|
口⑥⑦口 |⑧⑨⑩⑪|
84
口④⑥④ |①-②-|
③⑧②口 |③-④-|
⑧③口② |⑤-⑥-|
①⑤口⑦ |⑦-⑧-|
85
②⑯⑨⑦ |①②③④|
④⑭⑪⑤ |⑤⑥⑦⑧|
⑫⑥③⑬ |⑨⑩⑪⑫|
⑩⑧①⑮ |⑬⑭⑮⑯|
86
②口口③ |①---|
口口口口 |②---|
口口口口 |③---|
口口①口 |----|
87
口口口口 |①---|
①口口① |----|
①②②① |②---|
①②②① |----|
88
②口口口 |①---|
口①①口 |----|
口口口口 |②---|
口口口口 |----|
89
⑧④⑤① |①②③④|
⑯⑫⑬⑨ |⑤⑥⑦⑧|
⑩⑭⑮⑪ |⑨⑩⑪⑫|
②⑥⑦③ |⑬⑭⑮⑯|
90
⑦⑤③① |①②③④|
⑮⑬⑪⑨ |⑤⑥⑦⑧|
⑯⑭⑫⑩ |⑨⑩⑪⑫|
⑧⑥④② |⑬⑭⑮⑯|
91
口口口① |①---|
口口口口 |----|
口口口口
口口口口

②②∨∨
┃┃┃┃
┃┃┃┃ |②---|
∧∧②② |----|
92
口口口口 |----|
口口口口 |----|
口口口口 |----|
口口口口 |----|
93
口口口口 |----|
口口口口 |----|
口口口口 |----|
口口口口 |----|
94
①①口口 |①---|
口口口口 |----|
口口口口 |----|
口口①① |----|
最終更新:2020年05月09日 16:51