アットウィキロゴ
No One Can Reach The Truth
BEMANI Sound Team "TAG"

EXTREME

Level: 8
BPM: 155
Notes(hold): 664(13)

1
□□□□ |①---|
□□□□ |----|
②③□□ |----|
□①①□ |--②③|
2
□□□② |①---|
□□□□ |----|
□□①□ |②---|
□□□□ |----|
3
□□□□ |①---|
□□□□ |----|
□□①①
□□□□

□□□□
□□□□
□□③② |----|
□□□□ |--②③|
4
□□□□ |①---|
□□□□ |----|
□①□□ |②---|
②□□□ |----|
5
□□□□ |①---|
□□②□ |----|
□□□□ |②---|
□①①□ |----|
6
①①□② |①---|
□□□□ |----|
□□□□ |②---|
□□□□ |----|
7
□①□□ |①---|
□□□□ |----|
①③②□ |----|
□□□□ |--②③|
8
□□□□ |①---|
③□□② |②---|
□④□□ |③---|
□□①□ |④---|
9
――① |①---|
②□□□ |②---|
③□□□ |③---|
④□□□ |④---|
10
□□∨1 |①---|
□□|□ |②---|
□②①□
□□□□

⑤――<
□□□□
□□3□ |③---|
□③④□ |④-⑤-|
11
■□□□ |①---|
□□②① |②---|
□□④③ |③---|
□□□□ |④---|
12
3□□□ |①---|
□⑥②① |②---|
□⑤□③ |③-④-|
□④□□ |⑤-⑥-|
13
⑤⑤□① |--①-|
□□②□ |②-③-|
⑥⑥□③ |④-⑤-|
□□④□ |--⑥-|
14
□□□□ |--①-|
□②①□ |②---|
□④□□ |③---|
□□③□ |④---|
15
□□□⑦ |①---|
□□□⑥ |--②-|
□□□⑤ |③---|
①③②④ |④⑤⑥⑦--|
16
①⑤②□ |①②-③|
□①⑥□ |④-⑤⑥|
③□④□
□③□□

□□□□
⑨⑫□⑩
□⑦⑬□ |⑦⑧⑨⑩|
⑪□⑧□ |⑪-⑫⑬|
17
□□⑤⑤ |①-②-|
④□⑦⑦ |③-④-|
③⑧⑨⑨ |⑤-⑥⑦|
⑥②□① |⑧-⑨-|
18
□□④③ |①---|
②□□⑤ |②-③-|
①□⑥□ |④-⑤-|
□□□⑦ |⑥-⑦-|
19
□□□② |①--②|
④④□□ |③-④-|
③③□□
①①□□

□□□□
□□□□
□□⑤⑤ |⑤---|
⑥□□□ |⑥---|
20
□⑥□□ |①---|
⑤□□□ |②---|
□④□□ |③-④-|
③①②□ |⑤-⑥-|
21
□□□□ |①---|
□④③□ |②-③④|
⑧⑦⑤① |⑤---|
□□⑥② |⑥-⑦⑧|
22
□□④③ |①---|
□□□□ |②-③④|
□□□□
□①□②

□□□□
□⑥□⑤
□□⑦□ |⑤-⑥-|
□⑧□□ |⑦-⑧-|
23
①①③③ |①-②③|
④④□□ |--④-|
□②□□
□□□□

⑦⑦□□
□□⑤⑤
□□⑧⑧ |⑤-⑥⑦|
□□⑥□ |--⑧-|
24
⑦⑤①① |①-②③|
③③⑥⑤ |--④-|
④⑥⑨⑧ |⑤-⑥-|
□②④□ |⑦-⑧⑨|
25
□□⑤⑤ |①-②-|
④□⑦⑦ |③-④-|
③⑧⑨⑨ |⑤-⑥⑦|
⑥②□① |⑧-⑨-|
26
□□④③ |①---|
②□□⑤ |②-③-|
①□⑥□ |④-⑤-|
□□□⑦ |⑥-⑦-|
27
□□□② |①--②|
④④□□ |③-④-|
③③⑤⑤ |⑤---|
①①□□ |----|
28
□⑤□□ |①---|
④□□□ |----|
□③□□ |②-③-|
②□①① |④-⑤-|
29
□□□□ |①---|
□④③□ |②-③④|
⑧⑦⑤① |⑤---|
□□⑥② |⑥-⑦⑧|
30
□□④③ |①---|
□□□□ |②-③④|
□□□□
□①□②

□□□□
□⑥□⑤
□□⑦□ |⑤-⑥-|
□⑧□□ |⑦-⑧-|
31
①①③③ |①-②③|
④④□□ |--④-|
□②□□
□□□□

⑦⑦□□
□□⑤⑤
□□⑧⑧ |⑤-⑥⑦|
□□⑥□ |--⑧-|
32
□□①① |①-②③|
③③⑤⑤ |④-⑤-|
□□□□
□②□④

⑦⑧⑨⑩
⑬□□□
⑥⑥□□ |⑥--⑦⑧⑨|
⑪□⑫□ |⑩⑪⑫⑬|
33
③□□□ |①---|
□□□□ |②-③-|
□③①□
□①□②

□□□□
□□⑦□
□□⑥④ |④-⑤-|
□□⑤□ |⑥-⑦-|
34
□①□① |①---|
②□□□ |②-③-|
□③□□ |--④-|
□④④□ |----|
35
□□③□ |①---|
□①□□ |②-③-|
□□①③
②□□□

□□□□
□□⑥□
□□⑤□ |--④-|
□□④□ |⑤-⑥-|
36
□①□① |①---|
□□□□ |②-③-|
②□□□
□□□③

⑧□□⑨
□④⑤□
□⑥⑦□ |--④⑤|
□□□□ |⑥⑦⑧⑨|
37
□□④□ |①-②-|
③□□④ |③-④-|
②□□□
□①①□

□□□□
□□□□
□□⑥□ |--⑤-|
□⑦□⑤ |⑥-⑦-|
38
②□②□ |①---|
□□□□ |②---|
①□□□
□□□□

□□□□
□③□③
④□④□ |③---|
□□□□ |④---|
39
④⑤⑥□ |①-②-|
⑨⑩③□ |③-④⑤|
□②⑦□ |⑥-⑦-|
①⑧①□ |⑧-⑨⑩|
40
□□□□ |①-②-|
□□①□ |③-④-|
□③□□
④□②□

⑦□□⑤
⑧□□⑥
□□□□ |⑤⑥-⑦|
□⑨⑨□ |⑧-⑨-|
41
⑥②①⑤ |①--②|
□④③□ |--③-|
②④③① |④--⑤|
□□□□ |--⑥-|
42
⑤①②⑥ |①--②|
□③④□ |--③-|
①③④② |④--⑤|
□□□□ |--⑥-|
43
⑤□□⑤ |①--②|
□③④□ |--③-|
①③④② |④---|
□①②□ |⑤---|
44
□②③□ |①---|
□④□□ |--②③|
□□□□ |④---|
①□□① |----|
45
□⑤⑥④ |①--②|
□⑦⑧① |--③-|
□⑨⑩② |④-⑤⑥|
□□□③ |⑦⑧⑨⑩|
46
④⑥⑤□ |①--②|
①⑧⑦□ |--③-|
②⑩⑨□ |④-⑤⑥|
③□□□ |⑦⑧⑨⑩|
47
□□□□ |①--②|
□⑤⑥① |--③-|
②⑥⑤□ |④---|
□④□③ |⑤-⑥-|
48
①⑥⑥② |--①-|
③⑤□④ |-②-③|
③□⑤④ |④-⑤-|
①⑥⑥② |⑥---|
49
⑤□□② |①-②-|
□⑥③□ |③-④-|
□④⑦□ |--⑤-|
①□□□ |⑥-⑦-|
50
⑤□□② |①-②-|
□⑥③□ |③-④-|
□④⑦□ |--⑤-|
①□□□ |⑥-⑦-|
51
⑤□□② |①-②-|
□⑥③□ |③-④-|
□④⑦□ |--⑤-|
①□□□ |⑥-⑦-|
52
□□□② |①-②-|
⑦□③⑦ |③-④-|
⑥④□⑥ |--⑤-|
①⑤⑤□ |⑥-⑦-|
53
②□□⑤ |①-②-|
□③⑥□ |③-④-|
□⑦④□ |--⑤-|
□□□① |⑥-⑦-|
54
②□□⑤ |①-②-|
□③⑥□ |③-④-|
□⑦④□ |--⑤-|
□□□① |⑥-⑦-|
55
②□□⑤ |①-②-|
□③⑥□ |③-④-|
□⑦④□ |--⑤-|
□□□① |⑥-⑦-|
56
①□□□ |①②-③|
②⑨⑨□ |④-⑤⑥|
⑤⑧⑧③ |--⑦-|
⑥⑦⑦④ |⑧-⑨-|
57
②□□① |①---|
□□⑤□ |--②-|
□□④□ |--③-|
□□③□ |④-⑤-|
58
□①□① |①---|
②□□□ |②-③-|
□③□□ |--④-|
□④④□ |----|
59
②□□① |①---|
□□⑤□ |--②-|
□□④□ |--③-|
□□③□ |④-⑤-|
60
□①□① |①---|
□□□□ |②-③-|
②□□□
□□□③

⑧□□⑨
□④⑤□
□⑥⑦□ |--④⑤|
□□□□ |⑥⑦⑧⑨|
61
□□④□ |①-②-|
③□□④ |③-④-|
②□□□
□①①□

□□□□
□□□□
□□⑥□ |--⑤-|
□⑦□⑤ |⑥-⑦-|
62
②□②□ |①---|
□③□③ |②---|
④①④① |③---|
□□□□ |④---|
63
④⑤⑥□ |①-②-|
⑨⑩③□ |③-④⑤|
□②⑦□ |⑥-⑦-|
①⑧①□ |⑧-⑨⑩|
64
□□□□ |①-②-|
□□①□ |③-④-|
□③□□
④□②□

⑦□□⑤
⑧□□⑥
□□□□ |⑤⑥-⑦|
□⑨⑨□ |⑧-⑨-|
65
□□□③ |①--②|
□②□□ |--③-|
①――<
□□□①

□⑤④□
⑥――<
5□□□ |④---|
□□□□ |⑤-⑥-|
66
⑤∨④③ |①--②|
5|□□ |--③-|
□⑥②□ |④---|
□□□① |⑤-⑥-|
67
□>―④ |①--②|
□□□① |③-④-|
□3□②
□□□□

⑦□□6
|□□□
|□⑤□ |⑤---|
∧⑥⑥□ |⑥-⑦-|
68
4∨□□ |①---|
□|①④ |--②③|
□④③② |④---|
□□□□ |----|
69
□>―① |①--②|
②□□□ |--③-|
③1□□
□□□□

□□□4
□⑤⑥□
□⑦⑧□ |④-⑤⑥|
④⑨⑩□ |⑦⑧⑨⑩|
70
①―<□ |①--②|
□□□② |--③-|
□□□③
□□□□

4□□□
□⑥⑤□
□⑧⑦□ |④-⑤⑥|
□⑩⑨④ |⑦⑧⑨⑩|
71
□>―① |①--②|
□③□□ |--③-|
②□□□
□□□□

□□∨4
□□|□
□□④□ |④---|
□⑤□□ |⑤---|
72
□②□② |①---|
□□□□ |--②-|
□□1□
①□□□

□□□□
□□□□
□□④③ |----|
□□□□ |--③④|
73
③□□② |①-②-|
□□□□ |③-④-|
□①□□
□□□④

□□□□
□□⑤□
□⑥□□ |--⑤-|
□□⑦□ |⑥-⑦-|
74
④③②① |①②③④|
⑧⑦⑥⑤ |⑤⑥⑦⑧|
⑫⑪⑩⑨ |⑨⑩⑪⑫|
□⑮⑭⑬ |⑬⑭⑮-|
75
□□□□ |---①②③|
④③②① |④-⑤-|
□⑤⑤□ |----|
□□□□ |----|
76
□⑫⑪⑩ |①-②-③-|
⑦⑧⑨□ |④-⑤-⑥-|
□⑥⑤④ |⑦-⑧-⑨-|
①②③□ |⑩-⑪-⑫-|
77
⑩⑪⑫□ |①-②-③-|
□⑨⑧⑦ |④-⑤-⑥-|
④⑤⑥□ |⑦-⑧-⑨-|
□③②① |⑩-⑪-⑫-|
78
⑯⑮⑭⑬ |①②③④|
⑨⑩⑪⑫ |⑤⑥⑦⑧|
⑧⑦⑥⑤ |⑨⑩⑪⑫|
①②③④ |⑬⑭⑮⑯|
79
□□□□ |①--②|
□③③□ |--③-|
□②②□
□①①□

⑤⑥⑥④
□□□□
□□□□ |-④--|
④⑥⑥⑤ |⑤-⑥-|
80
□□□□ |----|
□□□□ |----|
□□□□ |----|
□□□□ |----|
最終更新:2019年11月11日 11:59