アットウィキロゴ
やんややんやNight ~踊ろよ愛媛~
ゴールデンボンバー

EXTREME

Level: 9.0
BPM: 145
Notes: 476

1
口口口口 |----|
口口口口 |----|
口口口口 |----|
口口口口 |----|
2
口口口口 |----|
口口口口 |----|
口口口口 |----|
口口口口 |----|
3
口口口口 |----|
口口口口 |----|
口口口口 |----|
口口口口 |----|
4
口口口口 |----|
口口口口 |----|
口口口口 |----|
口口口口 |----|
5
口口口口 |----|
口口口口 |----|
口口口口 |----|
口口口口 |----|
6
口口口口 |----|
口口口口 |----|
口口口口 |----|
口口口口 |----|
7
①口口② |①---|
口口口口 |②---|
口口口口 |③---|
③口口④ |④---|
8
①口口② |①---|
口口口口 |②---|
口口口口 |③---|
③口口④ |④---|
9
①口口② |①---|
口口口口 |②---|
口口口口 |③---|
③口口④ |④---|
10
①口口② |①---|
口口口口 |②---|
口口口口 |----|
口口口口 |----|
11
①②③④ |①-②③|
口口⑤口 |-④⑤-|
口⑥口口 |⑥⑦-⑧|
⑦⑧⑨⑩ |⑨-⑩-|
12
①②③④ |①-②③|
口口⑤口 |-④⑤-|
口⑥口口 |⑥⑦-⑧|
⑦⑧⑨⑩ |⑨-⑩-|
13
①②③④ |①-②③|
口口⑤口 |-④⑤-|
口⑥口口 |⑥⑦-⑧|
⑦⑧⑨⑩ |⑨-⑩-|
14
①②③④ |①-②③|
⑧口⑤⑧ |-④⑤-|
⑥口口⑦ |⑥--⑦|
口⑥⑦口 |--⑧-|
15
①②③④ |①-②③|
口口⑤口 |-④⑤-|
口⑥口口 |⑥⑦-⑧|
⑦⑧⑨⑩ |⑨-⑩-|
16
①②③④ |①-②③|
口口⑤口 |-④⑤-|
口⑥口口 |⑥⑦-⑧|
⑦⑧⑨⑩ |⑨-⑩-|
17
①②③④ |①-②③|
口口⑤口 |-④⑤-|
口⑥口口 |⑥⑦-⑧|
⑦⑧⑨⑩ |⑨-⑩-|
18
①②③④ |①-②③|
⑧口⑤⑧ |-④⑤-|
⑥⑧⑧⑦ |⑥--⑦|
口⑥⑦口 |--⑧-|
19
⑤④③② |①---|
⑥①①口 |②-③-|
⑥口口口 |④-⑤-|
口口口口 |--⑥-|
20
口口口口 |----|
口口口口 |----|
口口口口 |----|
①②口口 |①-②-|
21
⑤口口口 |①---|
⑤④③口 |②---|
口口口② |③-④-|
口口①口 |--⑤-|
22
口口口口 |----|
口口口口 |----|
口口口口 |----|
口口口口 |----|
23
口④④③ |----|
⑤口④② |①-②-|
口④口① |③-④-|
口④④口 |--⑤-|
24
口口口① |----|
口口口① |----|
口口②口 |--①-|
口口口口 |--②-|
25
口③④口 |①---|
②口口口 |②---|
⑤①口⑤ |③-④-|
口口口口 |--⑤-|
26
口口口口 |----|
⑨⑩⑪⑫ |①②③④|
⑤⑥⑦⑧ |⑤⑥⑦⑧|
①②③④ |⑨⑩⑪⑫|
27
口①①口 |①---|
口口口口 |②-③-|
口口口③
口口②口

口⑥⑥口
口口口⑥
⑤口⑥口 |④-⑤-|
口④⑥口 |--⑥-|
28
口③口口 |----|
②口口口 |----|
口①口口 |--①-|
口口口口 |②-③-|
29
口口口口 |①---|
口②①口 |②---|
口口口口 |③-④-|
⑤口④③ |--⑤-|
30
口口口口 |----|
口口口口 |----|
口口口口 |----|
口口口口 |----|
31
口口⑤口 |----|
④口口口 |①-②-|
口③②① |③-④-|
口口口口 |--⑤-|
32
口口口口 |----|
口口口口 |----|
口口口口 |----|
口①①口 |--①-|
33
②②口口 |①---|
口口口口 |②---|
①①口口
口口口口

口⑤⑤口
口口④④
口口③③ |③-④-|
口口口口 |--⑤-|
34
口口口口 |----|
口口口口 |----|
口口口口 |----|
口口①口 |①---|
35
口口口口 |①---|
口③口口 |--②-|
①口口① |----|
口②口口 |③---|
36
口口③口 |①---|
①口口① |--②-|
口口②口 |----|
口口口口 |③---|
37
①口口① |①---|
口口口口 |②-③-|
②③口④ |--④-|
口口⑤口 |--⑤-|
38
口口口口 |①---|
①口②① |----|
口口口口 |----|
口②口口 |--②-|
39
口口口口 |①---|
口口口口 |②-③-|
①③③①
口口②②

⑤⑤口口
口⑥④④
口口口口 |④-⑤-|
口口⑥口 |--⑥-|
40
口⑥⑤⑤ |①---|
④④⑥口 |②-③-|
①③③① |④-⑤-|
②②口口 |--⑥-|
41
③口口② |①---|
口口口口 |②-③-|
口口①口 |----|
⑤①口④ |④-⑤-|
42
③②①口 |①--②|
②口③① |--③-|
①③口② |----|
口①②③ |----|
43
②口口① |①--②|
③口口③ |--③-|
③口口③ |----|
口①②口 |----|
44
口口口① |①---|
口①①口 |----|
①①口口 |----|
口①口口 |----|
45
③口②口 |①-②③|
⑥口口口 |-④⑤-|
口⑦⑤⑤ |--⑥-|
口④⑧① |⑦-⑧-|
46
③③②② |①-②-|
④口口① |--③-|
④口口① |④---|
口口口口 |----|
47
口④口④ |①---|
口③口③ |②---|
口①①口 |③---|
②①①② |④---|
48
④口④口 |①---|
③口③口 |②---|
口①①口 |③---|
②①①② |④---|
49
口②口③ |①-②③|
口口口口 |-④⑤-|
⑤⑤口口
①口④口

口口口⑧
⑦⑧口口
口口⑦⑥ |--⑥-|
口⑥口口 |⑦-⑧-|
50
①①口口 |①--②|
口口③② |--③④|
口④口口 |⑤---|
口口⑤② |----|
51
②口口① |①--②|
③口口③ |--③-|
③口口③
口①②口

口口口口
口⑥口口
口口⑤口 |--④-|
口④口口 |⑤-⑥-|
52
③③②② |①-②-|
④④①① |--③-|
口口口口 |④---|
口口口口 |----|
53
③口②口 |①-②③|
⑥口口口 |-④⑤-|
口⑦⑤⑤ |--⑥-|
口④⑧① |⑦-⑧-|
54
③③②② |①-②-|
④口口① |--③-|
④口口① |④---|
口口口口 |----|
55
口④口④ |①---|
口③口③ |②---|
口①①口 |③---|
②①①② |④---|
56
④口④口 |①---|
③口③口 |②---|
口①①口 |③---|
②①①② |④---|
57
口②口③ |①-②③|
口口口口 |-④⑤-|
⑤⑤口口
①口④口

口口口⑧
⑦⑧口口
口口⑦⑥ |--⑥-|
口⑥口口 |⑦-⑧-|
58
①①口口 |①---|
口口②⑤ |--②③|
口③口口 |④---|
口口④口 |--⑤-|
59
①②③④ |①-②③|
口口⑤口 |-④⑤-|
口⑥口口 |⑥⑦-⑧|
⑦⑧⑨⑩ |⑨-⑩-|
60
①②③④ |①-②③|
口口⑤口 |-④⑤-|
口⑥口口 |⑥⑦-⑧|
⑦⑧⑨⑩ |⑨-⑩-|
61
①②③④ |①-②③|
口口⑤口 |-④⑤-|
口⑥口口 |⑥⑦-⑧|
⑦⑧⑨⑩ |⑨-⑩-|
62
①②③④ |①-②③|
⑧口⑤⑧ |-④⑤-|
⑥口口⑦ |⑥--⑦|
口⑥⑦口 |--⑧-|
63
①②③④ |①-②③|
口口⑤口 |-④⑤-|
口⑥口口 |⑥⑦-⑧|
⑦⑧⑨⑩ |⑨-⑩-|
64
①②③④ |①-②③|
口口⑤口 |-④⑤-|
口⑥口口 |⑥⑦-⑧|
⑦⑧⑨⑩ |⑨-⑩-|
65
①②③④ |①-②③|
口口⑤口 |-④⑤-|
口⑥口口 |⑥⑦-⑧|
⑦⑧⑨⑩ |⑨-⑩-|
66
①②③④ |①-②③|
⑧口⑤⑧ |-④⑤-|
⑥口口⑦ |⑥--⑦|
口⑥⑦口 |--⑧-|
67
①口口口 |①---|
口①口口 |----|
口口①口
口口口口

口口口②
口②口②
口②口口 |----|
口②口口 |②---|

accuracy: 99.5%
最終更新:2024年09月20日 02:51