アットウィキロゴ
やんややんやNight ~踊ろよ栃木~
ゴールデンボンバー

BASIC

Level: 3
BPM: 145
Notes: 175

1
口口口口 |----|
口口口口 |----|
口口口口 |----|
口口口口 |----|
2
口口口口 |----|
口口口口 |----|
口口口口 |----|
口口口口 |----|
3
口口口口 |----|
口口口口 |----|
口口口口 |----|
口口口口 |----|
4
口口口口 |----|
口口口口 |----|
口口口口 |----|
口口口口 |----|
5
口口口口 |----|
口口口口 |----|
口口口口 |----|
口口口口 |----|
6
口口口口 |----|
口口口口 |----|
口口口口 |----|
口口口口 |----|
7
口口口① |①---|
口口口口 |----|
口口口口 |----|
口口口口 |----|
8
口口①口 |①---|
口口口口 |----|
口口口口 |----|
口口口口 |----|
9
口①口口 |①---|
口口口口 |----|
口口口口 |----|
口口口口 |----|
10
①口口口 |①---|
口口口口 |----|
口口口口 |----|
口口口口 |----|
11
口口口口 |①---|
口①②口 |②---|
口③④口 |③---|
口口口口 |④---|
12
口口口口 |①---|
口①②口 |②---|
口③④口 |③---|
口口口口 |④---|
13
口口口口 |①---|
口①②口 |②---|
口③④口 |③---|
口口口口 |④---|
14
口口口口 |①---|
口①②口 |②---|
口③口口 |③---|
口口口口 |----|
15
口口口口 |①---|
口①②口 |②---|
口③④口 |③---|
口口口口 |④---|
16
口口口口 |①---|
口①②口 |②---|
口③④口 |③---|
口口口口 |④---|
17
口口口口 |①---|
口①②口 |②---|
口③④口 |③---|
口口口口 |④---|
18
口口口口 |①---|
口①②口 |②---|
口③口口 |③---|
口口口口 |----|
19
口口口口 |①---|
口口口① |----|
口口口口 |----|
口口口口 |----|
20
口口口① |①---|
口口口口 |----|
口口口口 |----|
口口口口 |----|
21
口口口口 |①---|
口口①口 |----|
口口口口 |----|
口口口口 |----|
22
口口①口 |①---|
口口口口 |----|
口口口口 |----|
口口口口 |----|
23
口口口口 |①---|
①口口口 |----|
口口口口 |----|
口口口口 |----|
24
①口口口 |①---|
口口口口 |----|
口口口口 |----|
口口口口 |----|
25
口口口口 |①---|
口①口口 |----|
口口口口 |----|
口口口口 |----|
26
口①口口 |①---|
口口口口 |----|
口口口口 |----|
口口口口 |----|
27
口口口口 |①---|
口口口口 |----|
口口口① |----|
口口口口 |----|
28
口口口口 |①---|
口口口口 |----|
口口口口 |----|
口口口① |----|
29
口口口口 |①---|
口口口口 |----|
口口①口 |----|
口口口口 |----|
30
口口口口 |①---|
口口口口 |----|
口口口口 |----|
口口①口 |----|
31
口口口口 |①---|
口口口口 |----|
①口口口 |----|
口口口口 |----|
32
口口口口 |①---|
口口口口 |----|
口口口口 |----|
①口口口 |----|
33
口口口口 |①---|
口口口口 |----|
口①口口 |----|
口口口口 |----|
34
口口口口 |①---|
口口口口 |----|
口口口口 |----|
口①口口 |----|
35
口口口口 |①---|
口口口口 |----|
口口口口 |----|
①口口① |----|
36
口口口口 |①---|
口口口口 |----|
①口口① |----|
口口口口 |----|
37
口口口口 |①---|
①口口① |----|
口口口口 |----|
口口口口 |----|
38
①口口① |①---|
口口口口 |----|
口口口口 |----|
口口口口 |----|
39
口口③口 |①---|
口口②口 |②---|
口口①口 |③---|
口口口口 |----|
40
口③口口 |①---|
口②口口 |②---|
口①口口 |③---|
口口口口 |----|
41
①口口① |①---|
口口口口 |----|
口口口口 |----|
口口口口 |----|
42
口口口口 |①---|
①口口① |----|
口口口口 |----|
口口口口 |----|
43
口口③口 |①---|
口口②口 |②---|
口口①口 |③---|
口口口口 |----|
44
口口口口 |①---|
口口口口 |----|
口口①口 |----|
口口口口 |----|
45
口③口口 |①---|
口②口口 |②---|
口①口口 |③---|
口口口口 |----|
46
①口口① |①---|
②口口② |----|
口口口口 |②---|
口口口口 |----|
47
口口口口 |①---|
口③口③ |②---|
②①①② |③---|
口口口口 |----|
48
口口口口 |①---|
③口③口 |②---|
②①①② |③---|
口口口口 |----|
49
口口口口 |①---|
口③口③ |②---|
②①①② |③---|
口口口口 |----|
50
口口口口 |①---|
③口③口 |②---|
②①①② |③---|
口口口口 |----|
51
口③口口 |①---|
口②口口 |②---|
口①口口 |③---|
口口口口 |----|
52
①口口① |①---|
②口口② |----|
口口口口 |②---|
口口口口 |----|
53
口口③口 |①---|
口口②口 |②---|
口口①口 |③---|
口口口口 |----|
54
①口口① |①---|
②口口② |----|
口口口口 |②---|
口口口口 |----|
55
口口口口 |①---|
口③口③ |②---|
②①①② |③---|
口口口口 |----|
56
口口口口 |①---|
③口③口 |②---|
②①①② |③---|
口口口口 |----|
57
口口口口 |①---|
口③口③ |②---|
②①①② |③---|
口口口口 |----|
58
口口口口 |①---|
③口③口 |②---|
②①①② |③---|
口口口口 |----|
59
口口口口 |①---|
口①②口 |②---|
口③④口 |③---|
口口口口 |④---|
60
口口口口 |①---|
口①②口 |②---|
口③④口 |③---|
口口口口 |④---|
61
口口口口 |①---|
口①②口 |②---|
口③④口 |③---|
口口口口 |④---|
62
口口口口 |①---|
口①②口 |②---|
口③口口 |③---|
口口口口 |----|
63
口口口口 |①---|
口①②口 |②---|
口③④口 |③---|
口口口口 |④---|
64
口口口口 |①---|
口①②口 |②---|
口③④口 |③---|
口口口口 |④---|
65
口口口口 |①---|
口①②口 |②---|
口③④口 |③---|
口口口口 |④---|
66
口口口口 |①---|
口①②口 |②---|
口③口口 |③---|
口口口口 |----|
67
口口口口 |①---|
①②口① |----|
口②口口 |----|
口口口口 |②---|

accuracy: 99.5%
最終更新:2024年10月16日 09:31