アットウィキロゴ
やんややんやNight ~踊ろよ奈良~
ゴールデンボンバー

ADVANCED

Level: 6
BPM: 145
Notes: 430

1
口口口口 |----|
口口口口 |----|
口口口口 |----|
口口口口 |----|
2
口口口口 |----|
口口口口 |----|
口口口口 |----|
口口口口 |----|
3
口口口口 |----|
口口口口 |----|
口口口口 |----|
口口口口 |----|
4
口口口口 |----|
口口口口 |----|
口口口口 |----|
口口口口 |----|
5
口口口口 |----|
口口口口 |----|
口口口口 |----|
口口口口 |----|
6
口口口口 |----|
口口口口 |----|
口口口口 |----|
口口口口 |----|
7
①口口② |①---|
口口口口 |②---|
口口口口 |③---|
③口口④ |④---|
8
①口口② |①---|
口口口口 |②---|
口口口口 |③---|
③口口④ |④---|
9
①口口② |①---|
口口口口 |②---|
口口口口 |③---|
③口口④ |④---|
10
①口口② |①---|
口口口口 |②---|
口③③口 |③---|
口口口口 |----|
11
①①②② |①---|
口口口口 |②---|
口口口口 |③---|
③③④④ |④---|
12
①①②② |①---|
①①②② |②---|
③③④④ |③---|
③③④④ |④---|
13
①①②② |①---|
口口口口 |②---|
口口口口 |③---|
③③④④ |④---|
14
①①②② |①---|
①①②② |②---|
③③④④ |③---|
③③④④ |④---|
15
①①②② |①---|
口口口口 |②---|
口口口口 |③---|
③③④④ |④---|
16
①①②② |①---|
①①②② |②---|
③③④④ |③---|
③③④④ |④---|
17
①①②② |①---|
口口口口 |②---|
口口口口 |③---|
③③④④ |④---|
18
①①②② |①---|
①①②② |②---|
口口口口
口口口口

口口口口
口⑤⑤口
口④④口 |③--④|
口③③口 |--⑤-|
19
①口②① |①---|
口口③口 |②---|
口口口口 |③---|
口④④口 |--④-|
20
口口口口 |----|
口口口口 |----|
①口口口 |----|
口口口口 |①---|
21
②口口⑤ |①---|
①④③口 |②---|
口口口口 |③-④-|
口口口口 |--⑤-|
22
口口口口 |----|
口口口口 |----|
口口口口 |----|
口口口口 |----|
23
口①口口 |----|
口②口口 |①---|
口口口口 |②---|
口③③口 |--③-|
24
口口口口 |----|
口②口口 |----|
①口口① |--①-|
口口口口 |--②-|
25
②口口口 |①---|
口口①口 |②---|
口口口口
口口口口

⑤口口⑤
口口口口
口④③口 |③-④-|
口口口口 |--⑤-|
26
口口口口 |----|
口口口口 |----|
口口口口 |----|
口口口口 |----|
27
口口①口 |----|
口口②口 |①---|
口口口口 |②---|
口③③口 |--③-|
28
口②口口 |----|
①口③口 |----|
口口口口 |--①-|
口口口口 |②-③-|
29
口口口口 |①---|
口②口口 |②---|
口①口口
口口口口

口口口⑤
口口口口
口④③口 |③-④-|
口口口口 |--⑤-|
30
口口口口 |----|
口口口口 |----|
口口口口 |----|
口口口口 |----|
31
口①口口 |----|
口②口口 |①---|
口口口口 |②---|
口③③口 |--③-|
32
口口口口 |----|
口①口口 |----|
口口口口 |----|
口口口口 |--①-|
33
②口口口 |①---|
口口①口 |②---|
口口口口
口口口口

⑤口口⑤
口口口口
口④③口 |③-④-|
口口口口 |--⑤-|
34
口口口口 |----|
口口口口 |----|
口口口口 |----|
口口口① |①---|
35
口口口口 |①---|
口口口口 |--②-|
①③②① |----|
口口口口 |③---|
36
口口口口 |①---|
①③②① |--②-|
口口口口 |----|
口口口口 |③---|
37
①口②① |①---|
口③口口 |②-③-|
口口口口 |--④-|
口⑤④口 |--⑤-|
38
口口口口 |①---|
①口口① |----|
口口口口 |----|
口口口口 |----|
39
口口⑤口 |①---|
口④口口 |②-③-|
⑥口③口 |④-⑤-|
口②口① |--⑥-|
40
口⑤口⑥ |①---|
口口④口 |②-③-|
口③口口 |④-⑤-|
①口②口 |--⑥-|
41
②口口口 |①---|
③口口① |②-③-|
口④④口 |----|
口⑤⑤口 |④-⑤-|
42
③口口③ |①--②|
②口口② |--③-|
①口口① |----|
口口口口 |----|
43
口口口口 |①--②|
③口口③ |--③-|
②④④② |----|
①口口① |④---|
44
①①口口 |①-②-|
③③③口 |--③-|
④④口口 |④---|
②②口口 |----|
45
口口口口 |①--②|
③口口③ |--③-|
②口口② |----|
①④④① |④---|
46
①口口② |①---|
口口口口 |②---|
口②①口
口口口口

④③口口
口口口口
口口④③ |③---|
口口口口 |④---|
47
口口口口 |①---|
口④口④ |②---|
口③口③ |③---|
②①①② |④---|
48
口口口口 |①---|
④口④口 |②---|
③口③口 |③---|
②①①② |④---|
49
口口口口 |①---|
口④口④ |②---|
口③口③ |③---|
②①①② |④---|
50
口口口口 |①---|
④口④口 |②---|
③口③口 |③---|
②①①② |④---|
51
口口口口 |①--②|
③口口③ |--③-|
②口口② |----|
①④④① |④---|
52
①口口② |①---|
④③口口 |②---|
口②①口 |③---|
口④③口 |④---|
53
口口口口 |①--②|
③口口③ |--③-|
②口口② |----|
①④④① |④---|
54
①口口② |①---|
口口口口 |②---|
口②①口
口口口口

④③口口
口口口口
口口④③ |③---|
口口口口 |④---|
55
口口口口 |①---|
口④口④ |②---|
口③口③ |③---|
②①①② |④---|
56
口口口口 |①---|
④口④口 |②---|
③口③口 |③---|
②①①② |④---|
57
口口口口 |①---|
口④口④ |②---|
口③口③ |③---|
②①①② |④---|
58
口口口口 |①---|
④口④口 |②---|
③口③口 |③---|
②①①② |④---|
59
①①②② |①---|
口口口口 |②---|
口口口口 |③---|
③③④④ |④---|
60
①①②② |①---|
①①②② |②---|
③③④④ |③---|
③③④④ |④---|
61
①①②② |①---|
口口口口 |②---|
口口口口 |③---|
③③④④ |④---|
62
①①②② |①---|
①①②② |②---|
③③④④ |③---|
③③④④ |④---|
63
①①②② |①---|
口口口口 |②---|
口口口口 |③---|
③③④④ |④---|
64
①①②② |①---|
①①②② |②---|
③③④④ |③---|
③③④④ |④---|
65
①①②② |①---|
口口口口 |②---|
口口口口 |③---|
③③④④ |④---|
66
①①②② |①---|
①①②② |②---|
口口口口
口口口口

口口口口
口⑤⑤口
口④④口 |③--④|
口③③口 |--⑤-|
67
①①①① |①---|
口②口口 |----|
口②口口 |----|
口②口口 |②---|

accuracy: 99.5%
最終更新:2024年10月16日 09:54