アットウィキロゴ
Chocolate Planet
Freezer feat.妃苺

EXTREME

Level: 9.8
BPM: 185
Notes(hold): 800(131)

1
口口口口|----|
口口口口|----|
口口口口|----|
口口口口|----|
2
口⑨⑧⑦|①②-③|
⑥⑤⑩口|④-⑤⑥|
口④③口|⑦⑧⑨-|
口⑩②①|⑩---|
3
①口口⑤|①---|
口④口∨|②---|
∧③口口|③-④-|
口口口②|--⑤-|

②口口口
口口口口
口口口口
口口口③
4
口④口|①-②-|
口口③口|③-④-|
口口②口|--⑤-|
口口①口|⑥-⑦-|

口口⑤口
⑤口口口
⑥口口口
⑦口口<
5
口>口②|----|
口口口口|①---|
口口口口|②---|
①③口口|--③-|

口口口③
口口口口
口口口口
口口口口
6
③口口口|①-②-|
口口口②|--③-|
口④①口|--④-|
口口⑤口|⑤---|
7
⑤口口①|①---|
∨口④口|②---|
口口③口|③-④-|
②口口∧|--⑤-|

口口口②
口口口口
口口口口
③口口口
8
口④口<|①-②-|
口③口口|③-④-|
口②口口|--⑤-|
口①口口|⑥-⑦-|

口⑤口口
口口口⑤
口口口⑥
口>口⑦
9
②口<口|----|
口口口口|①---|
口口口口|②---|
口口③①|--③-|

③口口口
口口口口
口口口口
口口口口
10
口口口③|①-②-|
②口口口|--③-|
口①④口|--④-|
口⑤口口|⑤---|
11
⑤口<口|----|
口口口口|①-②-|
④③口口|③-④-|
口口②①|--⑤-|
12
①口口③|----|
口口口口|①-②-|
口口口②|--③-|
口口口①|----|
13
口口口口|①---|
④口口口|②-③-|
③④口口|--④-|
①②④口|----|
14
口③④④|①---|
口②①口|②-③-|
口口①①|--④-|
口口口口|----|
15
口口口口|----|
⑥口口口|①-②-|
口⑥⑤④|③-④-|
①②③口|⑤-⑥-|
16
④口口③|--①-|
口①②③|②-③-|
口口口口|--④-|
口口口口|----|
17
④口口口|①---|
口口口③|②-③-|
口口②口|--④-|
①①口口|----|
18
口口口口|①---|
口④③口|②---|
②口口<|③-④-|
口口①|----|

口口口口
口口口口
③口口口
口口口②
19
口口⑦⑦|①---|
口⑤口③|②-③-|
④口口②|④-⑤-|
①②④⑥|⑥-⑦-|
20
⑤⑤口口|①---|
③口口口|②-③-|
口②口口|④-⑤-|
①②④⑥|⑥---|
21
⑤口口口|①---|
口③口①|②-③-|
②口口①|④---|
①②④⑤|⑤---|
22
口口①①|①---|
②口口⑤|②-③-|
口③口口|④-⑤-|
①②④⑥|⑥---|
23
①口口①|①---|
②④③口|②---|
④②口③|③---|
②④③口|④---|
24
②口①①|①---|
③口口①|②-③-|
口口口口|----|
∧口④④|④---|

口口口口
④口口口
口口口口
口口口口
25
②②④④|①---|
口②①①|②---|
口口①口|③-④-|
③③口口|--⑤-|

口口口口
口口口口
口口⑤
口口口口
26
①口口①|----|
口口口口|----|
口口口①|----|
口口口口|①---|
27
④口口④|①---|
口>口①|--②-|
③③口口|③---|
②②口口|④---|

口口口口
口口口②
口口口口
口口口口
28
④口口④|①---|
①口<口|--②-|
口口③③|③---|
口口②②|④---|

口口口口
②口口口
口口口口
口口口口
29
④口⑤口|①---|
口>口①|--②-|
③③口口|③---|
②②口口|④-⑤-|

口口口口
口口口②
口口口口
口口口口
30
⑤⑤⑤⑤|①---|
①<②口|②-③-|
口口③口|④---|
口口④口|⑤---|

口口口口
②口口口
口口口口
口口口口
31
④口口④|①---|
口>口①|--②-|
③③口口|③---|
②②口口|④---|

口口口口
口口口②
口口口口
口口口口
32
口⑤④口|①---|
①口<口|--②-|
口口③③|③---|
口口②②|④-⑤-|

口口口口
②口口口
口口口口
口口口口
33
①口口口|①---|
口>口③|--②-|
∧④②口|③---|
口口口口|④---|

②口口口
口口口④
口口口口
口口口口
34
④口②口|①---|
③口③口|②-③-|
④口②口|④---|
⑤①①⑤|⑤---|
35
口口口口|①-②-|
③⑦⑤①|③-④-|
∧∧∧∧|⑤-⑥-|
⑥②④⑧|⑦-⑧-|

口口口口
⑦口口⑤
口口口口
口口口口
36
⑦⑤③①|①-②-|
∧∧∧∧|③-④-|
②④⑧⑥|⑤-⑥-|
口口口口|⑦-⑧-|

口口⑦⑤
口③①口
口口口口
口口口口
37
①①口口|①-②-|
⑥⑤②③|③-④-|
口⑦⑦口|⑤-⑥-|
口④①口|⑦---|
38
⑧⑦⑥⑤|①-②-|
口④①口|③-④-|
③口口②|⑤-⑥-|
④口口①|⑦-⑧-|
39
口口口口|①-②-|
①⑤⑦③|③-④-|
∧∧∧∧|⑤-⑥-|
⑧④②⑥|⑦-⑧-|

口口口口
⑤口口⑦
口口口口
口口口口
40
①③⑤⑦|①-②-|
∧∧∧∧|③-④-|
⑥⑧④②|⑤-⑥-|
口口口口|⑦-⑧-|

⑤⑦口口
口①③口
口口口口
口口口口
41
口口①①|①---|
②口口②|--②-|
④口口④|③---|
③①①③|--④-|
42
④②①③|①---|
口口口口|②---|
口口口口|③---|
④②①③|④---|
43
口口口口|①-②-|
③⑦⑤①|③-④-|
∧∧∧∧|⑤-⑥-|
⑥②④⑧|⑦-⑧-|

口口口口
⑦口口⑤
口口口口
口口口口
44
⑦⑤③①|①-②-|
∧∧∧∧|③-④-|
②④⑧⑥|⑤-⑥-|
口口口口|⑦-⑧-|

口口⑦⑤
口③①口
口口口口
口口口口
45
①①口口|①-②-|
⑦口②①|③-④-|
⑦口口口|⑤-⑥-|
③④⑥⑤|⑦---|
46
①⑥⑤④|①-②-|
口②口口|③---|
口口口③|④-⑤-|
口③口口|⑥-⑦-|

⑦口口口
口口口口
口口口口
口口口口
47
口口口口|①-②-|
①⑤⑦③|③-④-|
∧∧∧∧|⑤-⑥-|
⑧④②⑥|⑦-⑧-|

口口口口
⑤口口⑦
口口口口
口口口口
48
①③⑤⑦|①-②-|
∧∧∧∧|③-④-|
⑥⑧④②|⑤-⑥-|
口口口口|⑦-⑧-|

⑤⑦口口
口①③口
口口口口
口口口口
49
口口①①|①---|
口④口口|--②-|
口口②③|③---|
口①①口|--④-|
50
③口④⑤|①---|
①口口②|②---|
口③口口|③---|
口口②口|④-⑤-|
51
口口口口|①---|
口口口口|②---|
②口口∨|③---|
①②<①|④---|

④口口口
③∨口口
口④③<
口③口②

口口口口
口口口口
口口④口
口口口口
52
④④>③|①---|
③>②①|②---|
②①口∧|③---|
①口口口|④---|

口口口④
口口③②
口口口口
口口口口
53
⑩⑫⑪⑩|①②③|
⑦⑧⑨⑦|④⑤⑥|
④⑥⑤④|⑦⑧⑨|
①②③①|⑩⑪⑫|
54
口④口④|①---|
口③口口|②---|
②口②口|③---|
口口①口|④---|
55
口口口口|①---|
口口口口|②---|
∨口口②|③---|
①>②①|④---|

口口口④
口口∨③
③④口
②口③口

口口口口
口口口口
口④口口
口口口口
56
③<④④|①---|
①②<③|②---|
∧口①②|③---|
口口口①|④---|

④口口口
②③口口
口口口口
口口口口
57
⑫④⑪⑮|①②③④|
⑧口⑤⑨|⑤⑥⑦⑧|
⑭②⑬③|⑨⑩⑪⑫|
⑥⑩①⑦|⑬⑭⑮⑯|

口口口口
口口口口
口⑯口口
口口口口
58
④①③口|①---|
②口口口|②---|
口口口②|③---|
口③①④|④---|
59
④口口④|①---|
口>口①|--②-|
③③口口|③---|
②②口口|④---|

口口口口
口口口②
口口口口
口口口口
60
④口口④|①---|
①口<口|--②-|
口口③③|③---|
口口②②|④---|

口口口口
②口口口
口口口口
口口口口
61
④口口④|①---|
口>口①|--②-|
③③口口|③---|
②②口口|④---|

口口口口
口口口②
口口口口
口口口口
62
④④④④|①---|
①口<口|--②-|
口口③③|③---|
口口②②|④---|

口口口口
②口口口
口口口口
口口口口
63
④口⑤口|①---|
口>口①|--②-|
③③口口|③---|
②②口口|④-⑤-|

口口口口
口口口②
口口口口
口口口口
64
口⑤口④|①---|
①口<口|--②-|
口口③③|③---|
口口②②|④-⑤-|

口口口口
②口口口
口口口口
口口口口
65
口⑤⑥口|①---|
④>口①|--②-|
③口口口|③-④-|
口②口口|⑤-⑥-|

口口口口
口口口②
口口口口
口口口口
66
②口口口|①---|
口③口口|②-③-|
④口①①|④---|
⑤口①⑤|⑤---|
67
口口口①|①---|
口∨②∧|②---|
∨③∧口|③---|
④口口口|④---|

口口口②
口口③口
口④口口
口口口口
68
口⑤③④|①---|
②口口口|②-③④|
口⑥口⑦|⑤-⑥-|
①>①口|⑦---|

口口口口
口口口口
口口口口
口口②口
69
①口口口|①---|
∧②∨口|②---|
口∧③∨|③---|
口口口④|④---|

②口口口
口③口口
口口④口
口口口口
70
⑨④⑥口|①-②③|
口口③⑤|④-⑤-|
⑦②⑪⑩|⑥⑦⑧⑨|
①⑫⑧①|⑩⑪⑫⑬|

口口口口
口口口口
口口口口
⑬口口口
71
口口口①|①---|
口∨②∧|②---|
∨③∧口|③---|
④口口口|④---|

口口口②
口口③口
口④口口
口口口口
72
口⑤③④|①---|
②口口口|②-③④|
口⑥口⑦|⑤-⑥-|
①>①口|⑦---|

口口口口
口口口口
口口口口
口口②口
73
①口口口|①---|
∧②∨口|②---|
口∧③口|③---|
口④⑤口|④-⑤-|

②口口口
口③口口
口口④口
口口口口
74
⑦⑤口②|①-②-|
口口④①|③④⑤-|
口③口⑥|⑥-⑦-|
⑧口口⑧|⑧---|
75
口口口口|①-②-|
③⑦⑤①|③-④-|
∧∧∧∧|⑤-⑥-|
⑥②④⑧|⑦-⑧-|

口口口口
⑦口口⑤
口口口口
口口口口
76
⑦⑤③①|①-②-|
∧∧∧∧|③-④-|
②④⑧⑥|⑤-⑥-|
口口口口|⑦-⑧-|

口口⑦⑤
口③①口
口口口口
口口口口
77
①①口口|①-②-|
⑥⑤②③|③-④-|
口⑦⑦口|⑤-⑥-|
口④①口|⑦---|
78
⑧⑦⑥⑤|①-②-|
口④①口|③-④-|
③口口②|⑤-⑥-|
④口口①|⑦-⑧-|
79
口口口口|①-②-|
①⑤⑦③|③-④-|
∧∧∧∧|⑤-⑥-|
⑧④②⑥|⑦-⑧-|

口口口口
⑤口口⑦
口口口口
口口口口
80
①③⑤⑦|①-②-|
∧∧∧∧|③-④-|
⑥⑧④②|⑤-⑥-|
口口口口|⑦-⑧-|

⑤⑦口口
口①③口
口口口口
口口口口
81
口口①①|①---|
⑤④④③|--②-|
口⑤③②|③-④-|
口①①②|⑤---|
82
④②①③|①---|
口口口口|②---|
口口口口|③---|
④②①③|④---|
83
口口口口|①-②-|
③⑦⑤①|③-④-|
∧∧∧∧|⑤-⑥-|
⑥②④⑧|⑦-⑧-|

口口口口
⑦口口⑤
口口口口
口口口口
84
⑦⑤③①|①-②-|
∧∧∧∧|③-④-|
②④⑧⑥|⑤-⑥-|
口口口口|⑦-⑧-|

口口⑦⑤
口③①口
口口口口
口口口口
85
①①口口|①-②-|
⑦口②①|③-④-|
⑦口口口|⑤-⑥-|
③④⑥⑤|⑦---|
86
①⑦⑥⑤|①-②-|
口②口③|③-④-|
口口④口|⑤-⑥-|
口口口口|⑦-⑧-|

⑧口口口
口口口口
口口口口
口口口口
87
口口口口|①-②-|
①⑤⑦③|③-④-|
∧∧∧∧|⑤-⑥-|
⑧④②⑥|⑦-⑧-|

口口口口
⑤口口⑦
口口口口
口口口口
88
①③⑤⑦|①-②-|
∧∧∧∧|③-④-|
⑥⑧④②|⑤-⑥-|
口口口口|⑦-⑧-|

⑤⑦口口
口①③口
口口口口
口口口口
89
③口①①|①---|
③③②④|--②-|
口口②②|③---|
口①①口|--④-|
90
③口①①|①---|
③口口口|②---|
②②口口|③---|
⑤口口④|④-⑤-|
91
①>①|①---|
①口①|----|
口>①∧|----|
口口口口|----|

口口口口
口口①口
口口口口
口口∧口
92
口①口①|①---|
口①①①|----|
口口①口|----|
口口口口|----|
最終更新:2021年01月12日 03:56