アットウィキロゴ
Xibercannon
隣の庭は青い(庭師+Aoi)

EXTREME

Level: 10.0
BPM: 190
Notes(hold): 807(40)

1
口口口口 |----|
口口口口 |----|
口口口口 |----|
口口口口 |----|
2
口④口⑤ |①-②-|
口⑥③口 |③-④-|
口②口⑦ |--⑤-|
口口①口 |⑥-⑦-|
3
②口①口 |①---|
口④口③ |②---|
①口②口 |③---|
口③口④ |④---|
4
口①①⑦ |①---|
⑥口②口 |--②③|
口③口⑤ |④-⑤-|
④口口口 |⑥-⑦-|
5
口①①口 |①---|
口②口口 |--②③|
口口③口 |④---|
⑤⑥口④ |--⑤⑥|
6
口口②⑥ |①---|
口⑤口口 |②-③-|
③口口④ |--④-|
口口①口 |⑤-⑥-|
7
①①口口 |①---|
口口②② |②---|
③③口口 |③---|
口口④④ |④---|
8
口口口口 |①---|
①━━< |----|
口口口口 |----|
口口口口 |----|
9
口口口① |①---|
口口口口 |----|
口口口口 |----|
口口口口 |----|
10
口口口口 |----|
①口口口 |----|
口口口口 |----|
口口口口 |①---|
11
①①①① |----|
口口口口 |----|
口口口口 |①---|
口口口口 |----|
12
口口口口 |①②③④|
⑥②⑦① |⑤-⑥⑦|
⑧④⑨③ |⑧⑨⑩-|
⑩口口⑤

口⑫口⑪
口⑭口⑬
口口口口
口口口口 |⑪⑫⑬⑭|
13
②⑩③⑧ |①-②③|
④口⑤口 |④⑤⑥-|
⑥口口① |⑦-⑧-|
口⑦⑨口 |⑨-⑩-|
14
口口口口 |①②③④|
⑥②⑦① |⑤-⑥⑦|
⑧④⑨③ |⑧⑨⑩-|
⑩口口⑤

口⑫口⑪
口⑭口⑬
口口口口
口口口口 |⑪⑫⑬⑭|
15
②⑨③口 |①-②③|
④口⑤口 |④⑤⑥-|
⑥口口① |⑦-⑧-|
⑧口⑦口 |⑨---|
16
⑩口口⑤ |①②③④|
⑧④⑨③ |⑤-⑥⑦|
⑥②⑦① |⑧⑨⑩-|
口口口口

口口口口
口口口口
口⑭口⑬
口⑫口⑪ |⑪⑫⑬⑭|
17
口⑦⑨口 |①-②③|
⑥口口① |④⑤⑥-|
④口⑤口 |⑦-⑧-|
②⑩③⑧ |⑨-⑩-|
18
⑩⑪口⑤ |①②③④|
⑧④⑨③ |⑤-⑥⑦|
⑥②⑦① |⑧⑨⑩-|
口口⑫口 |⑪-⑫-|
19
口口①口 |①--②|
③②口口 |--③-|
口口③①
②口口口

⑤口口④
口口⑤口
⑥④口⑥ |④--⑤|
口口口口 |--⑥-|
20
口②②口 |①---|
口③⑥⑥ |②---|
口口④口 |③-④-|
口①①⑤ |⑤-⑥-|
21
⑤口②⑥ |--①-|
口③口口 |--②③|
⑦口④口 |④-⑤-|
①①口口 |⑥-⑦-|
22
④口⑥口 |①--②|
③⑤①口 |--③-|
口②口② |--④-|
口口③① |⑤-⑥-|
23
口口口∨ |--①-|
口口口③ |②-③-|
口口②口
口①口口

口口口口
⑥口口⑤
口⑤口口 |--④-|
④口口口 |⑤-⑥-|
24
⑤①∨口 |①--②|
口口①口 |--③-|
②⑥④口 |--④-|
口③口口 |⑤--⑥|
25
⑦口口口 |--①-|
③⑥口② |②-③-|
⑤口口④ |④-⑤-|
①口口口 |⑥-⑦-|
26
口①④④ |①-②-|
⑦口①② |③-④-|
口③⑥口 |--⑤-|
⑤口口口 |⑥-⑦-|
27
⑩口口⑨ |①②③④|
口②⑤① |⑤-⑥-|
⑧⑥口⑦ |⑦-⑧-|
口④口③ |⑨-⑩-|
28
口口②口 |----|
①③口① |①-②-|
⑥口④口 |③-④-|
①⑤口① |⑤-⑥-|
29
⑤①⑦④ |①②③-|
⑨口②口 |④-⑤-|
口③口⑥ |⑥-⑦-|
口⑧口口 |⑧-⑨-|
30
⑧④口⑦ |①-②-|
口⑥口② |③-④-|
口口③口 |⑤-⑥-|
⑤口①口 |⑦-⑧-|
31
∨口口口 |①-②-|
④口口口 |③-④-|
①③口①
口口②口

口口⑤口 |①-②-|
⑦口口⑥ |③-④-|
口口⑦口 |⑤-⑥-|
口口口⑧ |⑦-⑧-|
32
口∨口① |①---|
④①口③ |②---|
口⑥⑤① |③-④-|
口②②口 |⑤-⑥-|
33
口口口① |--①-|
⑤口②④ |②-③-|
口口口③ |④-⑤-|
口⑦⑥口 |⑥-⑦-|
34
口③①口 |①-②-|
⑩①口⑨ |③-④-|
⑧⑦⑥⑤ |⑤⑥⑦⑧|
②口口④ |⑨-⑩-|
35
②⑥①⑤ |①-②-|
口口⑨口 |③-④-|
口⑧口⑦ |⑤⑥⑦⑧|
④口③口 |⑨---|
36
④④②口 |①---|
①③口① |②-③-|
∨∨口口 |--④-|
⑤⑤口口 |--⑤-|
37
口口①② |----|
口口③口 |--①②|
口⑥口④ |③-④-|
⑤⑤⑤口 |⑤-⑥-|
38
口②④④ |①---|
①口③① |②-③-|
口口∨∨ |--④-|
口口⑤⑤ |--⑤-|
39
②①口口 |----|
口③口口 |--①②|
④口⑥口 |③-④-|
口⑤⑤⑤ |⑤-⑥-|
40
⑤④②⑤ |①---|
①口口① |②-③-|
口③口④ |--④-|
口口口口 |--⑤-|
41
口口口口 |----|
口①③口 |①-②-|
④口口④ |--③-|
③口②口 |--④-|
42
口②①口 |①-②-|
④口口③ |③-④-|
口⑥⑤口 |⑤-⑥-|
口⑧⑦口 |⑦-⑧-|
43
口②口口 |----|
口口③① |--①-|
口④口① |②-③-|
口口⑤口 |④-⑤-|
44
口>━① |①-|
①口口口
口口口口
①口口口

口口口② |②-|
口③口口 |③-|
>━③口
口③口口

⑤口口口
>━⑤口 |④-|
⑤口④口 |⑤-|
口口口口

口⑦口口
口口⑥口
口⑦口口 |⑥-|
口>━⑦ |⑦-|

口口口口
口口口口
口口口口
口口口⑧ |⑧-|
45
口口③口 |①---|
①④口① |②---|
口口⑤口 |③-④-|
②⑥②口 |⑤-⑥-|
46
①━<口 |①-|
口口口①
口口口口
口口口①

②口口口 |②-|
口口③口 |③-|
口③━<
口口③口

口口口⑤
口⑤━< |④-|
口④口⑤ |⑤-|
口口口口

口口⑦口
口⑥口口
口口⑦口 |⑥-|
⑦━<口 |⑦-|

口口口口
口口口口
口口口口
⑧口口口 |⑧-|
47
⑥①口口 |①-②-③-|
口口⑦⑤ |④-⑤-⑥-|
②⑧口⑩ |⑦-⑧-⑨-|
口④⑨③ |⑩---|
48
口>━① |①-|
①口口口
口口口口
口口口口

口口口② |②-|
口口口口 |③-|
>━③口
口③口口

口⑤口口
>━⑤口 |④-|
口口④口 |⑤-|
口口口口

口口口口
口口⑥口
⑦口口口 |⑥-|
口>━⑦ |⑦-|

口口口口
口口口口
口口口口
口口口⑧ |⑧-|
49
①━<口 |①-|
口口口①
口口口口
口口口口

②口口口 |②-|
口口口口 |③-|
口③━<
口口③口

口口⑤口
口⑤━< |④-|
口④口口 |⑤-|
口口口口

口口口口
口⑥口口
口口口⑦ |⑥-|
⑦━<口 |⑦-|

口口口口
口口口口
口口口口
⑧口口口 |⑧-|
50
口①━< |①-|
口口口①
口口口口
口口口口

口②口口 |②-|
>━③口 |③-|
③口口口
口口口口

口口口口
口口④口 |④-|
口⑤━< |⑤-|
口口口⑤

口口口口
口口口口
口⑥口口 |⑥-|
>━⑦口 |⑦-|

口口口口
口口口口
口口口口
口口⑧口 |⑧-|
51
⑥口①⑤ |①-②-|
⑧②口⑦ |③-④-|
⑩口③⑨ |⑤⑥⑦⑧|
⑫④口⑪ |⑨⑩⑪⑫|
52
口口口口 |①---|
口①①口 |----|
口┃┃口 |----|
口∧∧口 |----|
53
口口口口 |----|
口口口口 |----|
口口口口 |----|
口口口口 |----|
54
口口口口 |----|
口口口口 |----|
口口口口 |----|
口口口口 |----|
55
③⑨⑨口 |①-②-|
①①①① |③-④-|
②口④② |⑤⑥⑦⑧|
⑤⑥⑦⑧ |⑨---|
56
口口口② |①-②-|
口口③⑥ |③④-⑤|
⑤①口④ |--⑥-|
⑩⑨⑧⑦ |⑦⑧⑨⑩|
57
②⑦口⑥ |①-②-|
④③⑧口 |③④-⑤|
口⑨①⑤ |--⑥-|
口口⑩口 |⑦⑧⑨⑩|
58
①口②口 |①②③④|
⑤⑦口⑥ |⑤-⑥⑦|
③⑫④⑩ |⑧⑨⑩-|
⑪⑨口⑧ |⑪-⑫-|
59
④③②① |①②③④|
⑬⑦⑬⑤ |⑤⑥⑦⑧|
⑧口⑥口 |⑨⑩⑪⑫|
⑫⑪⑩⑨ |⑬---|
60
⑤①口⑦ |①-②-|
口⑥⑥口 |③④-⑤|
口③④② |--⑥-|
⑦口口口 |⑦---|
61
⑤⑥⑤⑥ |①-②-|
①⑤⑥② |③④--|
⑤⑥⑤⑥ |⑤---|
口③④口 |⑥---|
62
口⑦口口 |①-②-|
①④⑧② |③-④⑤|
⑥⑨⑤口 |--⑥-|
③口⑩口 |⑦⑧⑨⑩|
63
⑥⑧⑤⑦ |①-②-|
①口口② |③-④-|
⑤⑦⑥⑧ |⑤-⑥-|
③口口④ |⑦-⑧-|
64
④⑤⑥⑦ |----|
①②口① |①--②|
口口口口 |--③-|
①口③① |④⑤⑥⑦|
65
⑦口口口 |①-②-|
②⑧③⑥ |③④-⑤|
⑤口⑨④ |--⑥-|
口①口⑩ |⑦⑧⑨⑩|
66
口⑧①口 |①-②-|
口口口口 |③④-⑤|
⑥③⑦⑤ |--⑥-|
④口②口 |⑦-⑧-|
67
⑪口⑨口 |①②③④|
⑧⑦⑥⑤ |⑤⑥⑦⑧|
口⑩口⑫ |⑨-⑩-|
④③②① |⑪-⑫-|
68
口⑤口② |①-②-|
⑤③口口 |③④-⑤|
①口④口 |--⑥-|
⑧⑦⑥口 |⑦-⑧-|
69
②口⑤口 |①-②-|
口口③⑤ |③④-⑤|
口④口① |--⑥-|
口⑥⑦⑧ |⑦-⑧-|
70
⑦①⑤③ |①-②-|
①⑦③⑤ |③-④-|
口④②口 |⑤-⑥-|
口⑥⑧口 |⑦-⑧-|
71
口③口③ |①②-③|
⑥口口⑤ |-④--|
①④②④ |⑤-⑥-|
⑧口口⑦ |⑦-⑧-|
72
口口口口 |①---|
口①①口 |----|
口┃┃口 |----|
口∧∧口 |----|
73
口口口口 |----|
口①①口 |①---|
口口口口 |----|
口口口口 |----|
74
⑩⑪⑫口 |①-②-③-|
口⑨⑧⑦ |④-⑤-⑥-|
④⑤⑥口 |⑦-⑧-⑨-|
口③②① |⑩-⑪-⑫-|
75
口口口① |①---|
口口口口 |----|
口口口口 |----|
口口口口 |----|
76
⑧口①口 |①-②-|
口③口⑤ |③-④-|
②口⑦口 |⑤-⑥-|
口⑥口④ |⑦-⑧-|
77
口口①口 |①-②-|
口③③口 |③-④-|
②口口口 |----|
④口口④ |----|
78
∨口口∨ |①---|
┃口口┃ |----|
②口口① |②---|
口口口口 |----|
79
④口口④ |①---|
口②①口 |②---|
③③③③ |③---|
口口口口 |④---|
80
口⑦③口 |①-②-|
口④⑧口 |③④-⑤|
⑥⑨口⑤ |--⑥-|
②口口① |⑦-⑧⑨|
81
口⑧②⑨ |①-②③|
⑤③口④ |-④-⑤|
口口口口 |⑥-⑦-|
口⑥①⑦ |⑧-⑨-|
82
①口①口 |①-②-|
④⑦③口 |③④⑤⑥|
口②⑧口 |--⑦-|
⑥⑨⑤口 |⑧-⑨-|
83
⑤⑫口① |①②③④|
⑥口⑪② |⑤⑥⑦⑧|
⑦⑩口③ |⑨-⑩-|
⑧口⑨④ |⑪-⑫-|
84
②口③① |①-②③|
④口口口 |④-⑤-|
口口①口
⑤口口口

口⑬口⑫
口⑪口⑩
口⑨口⑧ |⑥⑦⑧⑨|
口⑦口⑥ |⑩⑪⑫⑬|
85
①口口口 |①-②③|
③口②口 |④-⑤-|
①口④口
⑤口口口

口口口口
口口口口
⑨口口⑨ |⑥-⑦-|
口⑦⑧⑥ |⑧-⑨-|
86
①③①③ |①-②-|
⑤⑥⑦⑧ |③-④-|
口②④口 |⑤⑥⑦⑧|
⑨⑩⑪⑫ |⑨⑩⑪⑫|
87
⑨④②⑤ |①-②-|
口⑩⑥口 |③-④-|
①⑦⑪③ |⑤⑥⑦⑧|
⑧口口⑫ |⑨⑩⑪⑫|
88
∨口口⑤ |①---|
①口④口 |----|
①口口③ |②-③-|
∧口②口 |④-⑤-|
89
口口①口 |①---|
①口口② |②---|
①③口口 |③---|
口口口④ |④---|
90
①口口① |①---|
口口②口 |--②③|
口③口⑤ |④-⑤-|
④口口口

口口口⑦
⑥口口口
口口口口
口口口口 |⑥-⑦-|
91
口①①口 |①---|
口②口口 |--②③|
口口③口 |④---|
⑤⑥口④ |--⑤⑥|
92
口口②⑥ |①---|
口⑤口口 |②-③-|
③口口④ |--④-|
口口①口 |⑤-⑥-|
93
①①口口 |①---|
口口②② |②---|
③③口口 |③---|
口口④④ |④---|
94
>━①口 |①---|
口①━< |----|
>━①口 |----|
口口口口 |----|
95
口口口口 |----|
口口口口 |----|
口口口口 |----|
口口口口 |----|
96
口口①口 |①---|
口①口口 |----|
口口①口 |----|
口口口口 |----|
最終更新:2019年12月04日 18:35