アットウィキロゴ
Spirit of the Beast
ikaruga_nex fw.tcheb

EXTREME

Level: 10.6
BPM: 195
Notes(hold): 996(12)

1
口口口口 |----|
口口口口 |----|
口口口口 |----|
口口口口 |----|
2
口①口④ |①--②|
口口②① |--③-|
②⑥⑥口 |④-⑤-|
⑤③③口 |--⑥-|
3
口口①口 |①--②|
①②口④ |--③-|
⑤口口② |④-⑤-|
口③③⑥ |⑥---|
4
④口①口 |①--②|
①②口口 |--③-|
口⑥⑥② |④-⑤-|
口③③⑤ |--⑥-|
5
口⑤②① |①--②|
⑥③②① |-③④-|
④口口口 |⑤---|
⑤⑥口口 |⑥---|
6
①口②① |①--②|
口⑥口④ |--③-|
⑥②口口 |④-⑤-|
口⑤口③ |--⑥-|
7
①②口① |①--②|
④⑥⑥口 |--③-|
口口②口 |④-⑤-|
③口⑤口 |⑥---|
8
①口②① |①--②|
⑧⑨⑩⑪ |--③-|
口②③口 |④⑤⑥⑦|
④⑤⑥⑦ |⑧⑨⑩⑪|
9
③①②④ |①--②|
口⑤⑤口 |--③-|
①③④② |-④--|
口⑥⑥口 |⑤-⑥-|
10
⑥①口④ |①--②|
口口⑤② |--③-|
①③口口 |④-⑤-|
口口口口 |--⑥-|
11
口口①口 |①--②|
②口④④ |--③-|
⑤⑤③① |④-⑤-|
口口⑥⑥ |⑥---|
12
④口①⑥ |①--②|
②⑤口口 |--③-|
口口③① |④-⑤-|
口口口口 |--⑥-|
13
⑦③②口 |①-②-|
口⑧④口 |③④⑤⑥|
①⑤⑨口 |⑦-⑧-|
口口⑥⑩ |⑨-⑩-|
14
口③①① |①---|
③口口① |②---|
①②口③ |③---|
④①③口 |④---|
15
口口口② |①---|
④①③④ |②---|
④③①④ |③---|
口口口① |④---|
16
③口①口 |①②-③|
口②口口 |-④-⑤|
⑨口⑤⑧ |⑥-⑦-|
⑦④口⑥ |⑧-⑨-|
17
④③②① |①②③④|
⑤⑥⑦⑧ |⑤⑥⑦⑧|
⑬⑨⑩⑬ |⑨⑩⑪⑫|
⑪口口⑫ |⑬---|
18
口口口① |①---|
②③④口 |②③④-|
口口口口
口口①口

口口口口
口口口口
⑦⑥⑤口 |⑤⑥⑦-|
⑧⑨⑩口 |⑧⑨⑩-|
19
⑩③④⑤ |①-②-|
②⑥⑦① |③④⑤-|
⑩⑧⑨口 |⑥⑦⑧⑨|
口口口口 |⑩---|
20
⑪口口⑩ |①-②-|
②⑦⑥① |③④⑤-|
口⑨⑧口 |⑥⑦⑧⑨|
⑤④③口 |⑩-⑪-|
21
口口①口 |①-②-|
②⑦⑦口 |③-④⑤|
口口口③ |--⑥-|
⑥④⑤口 |⑦---|
22
⑩④③② |①---|
①⑨口① |②③④-|
口口⑧口 |⑤⑥⑦-|
⑦⑥⑤口 |⑧⑨⑩-|
23
口⑤④③ |①-②-|
⑦⑩⑩⑥ |③④⑤-|
⑨②口⑧ |⑥⑦⑧⑨|
口口口① |⑩---|
24
①⑧⑥② |①-②-|
口口口口 |③-④-|
口口口口 |⑤-⑥-|
③⑤⑦④ |⑦-⑧-|
25
⑤口口① |①②③④|
⑩⑥②⑨ |⑤⑥⑦⑧|
⑫③⑦⑪ |⑨⑩⑪⑫|
④⑬⑬⑧ |⑬---|
26
口③②① |①②③-|
口④⑤⑥ |④⑤⑥-|
口⑨⑧⑦ |⑦⑧⑨-|
口⑩⑪⑫ |⑩⑪⑫-|
27
口③②① |①②③-|
⑩口⑤口 |④-⑤-|
④⑥⑦口 |⑥⑦⑧⑨|
口⑧⑨口 |⑩---|
28
⑤②④① |①②③-|
⑪口⑥③ |④⑤⑥-|
口⑦⑧⑫ |⑦⑧⑨⑩|
口⑨⑩口 |⑪-⑫-|
29
⑦①⑦口 |①-②-|
口⑤④② |③-④⑤|
③⑥口口 |--⑥-|
口口口口 |⑦---|
30
口⑩口口 |①---|
①口⑨① |②③④-|
④⑦口⑧ |⑤⑥⑦-|
②⑤③⑥ |⑧⑨⑩-|
31
口口③① |①-②-|
口④口⑩ |③④⑤-|
⑤⑦⑥口 |⑥⑦⑧⑨|
②⑨⑧口 |⑩---|
32
口⑤口口 |①-②-|
口③①⑦ |③-④-|
口口⑥口 |⑤-⑥-|
②口⑧④ |⑦-⑧-|
33
⑦⑧⑨⑩ |①②③④|
⑤⑥⑪⑫ |⑤⑥⑦⑧|
③④⑬口 |⑨⑩⑪⑫|
①②口⑭ |⑬-⑭-|
34
②⑧⑧④ |①---|
⑤③口口 |②③-④|
①⑥口① |-⑤⑥-|
⑦④⑦口 |⑦-⑧-|
35
④⑦⑦④ |①---|
口口⑥② |②③-④|
①⑤③① |-⑤⑥-|
口口⑧⑧ |⑦-⑧-|
36
口口口④ |①---|
口口口② |②③-④|
①口③①
④口口口

⑤口口口
口⑥口口
⑧口口口 |-⑤⑥-|
口⑦口口 |⑦-⑧-|
37
⑩⑨⑧⑦ |①②③④|
⑫⑪⑥⑤ |⑤⑥⑦⑧|
口⑬④③ |⑨⑩⑪⑫|
⑭口②① |⑬-⑭-|
38
④⑧⑧② |①---|
口口③⑤ |②③-④|
①口⑥① |-⑤⑥-|
口⑦④⑦ |⑦-⑧-|
39
④⑦⑦④ |①---|
②⑥口口 |②③-④|
①③⑤① |-⑤⑥-|
⑧⑧口口 |⑦-⑧-|
40
口口口口 |①-②-|
口口①口 |③-④-|
②④口③
口口③①

⑦⑧⑨⑩
⑤⑥⑪⑫
口口口口 |⑤⑥⑦⑧|
口口口口 |⑨⑩⑪⑫|
41
⑥⑧⑥⑧ |①--②|
③⑤⑦口 |--③④|
②④②口 |⑤-⑥-|
①⑦⑤① |⑦-⑧-|
42
口口口口 |①---|
②④口口 |②③-④|
口③口①
口口④①

⑥⑦⑤⑦
口口口口
口口口⑧ |-⑤⑥-|
口口口⑧ |⑦-⑧-|
43
口口口口 |①---|
口口④② |②③-④|
①口③口
①④口口

⑤⑦⑥口
口口口口
⑧⑦口口 |-⑤⑥-|
⑧口口口 |⑦-⑧-|
44
④口口口 |①---|
口口口② |②③-④|
口口③①
口口口①

口口口⑤
口口⑥口
口口口⑧ |-⑤⑥-|
口口⑦口 |⑦-⑧-|
45
⑦⑧⑨⑩ |①②③④|
⑤⑥⑪⑫ |⑤⑥⑦⑧|
③④⑬口 |⑨⑩⑪⑫|
①②口⑭ |⑬-⑭-|
46
⑥⑦⑤⑦ |①---|
②④口口 |②③-④|
①③口⑧ |-⑤⑥-|
①口④⑧ |⑦-⑧-|
47
⑤⑦⑥⑧ |①---|
口口④② |②③-④|
①口③⑦ |-⑤⑥-|
①④口口 |⑦-⑧-|
48
⑯⑮⑭⑬ |①②③④|
①②⑩⑨ |⑤⑥⑦⑧|
③④⑫⑪ |⑨⑩⑪⑫|
⑧⑦⑥⑤ |⑬⑭⑮⑯|
49
口口口口 |①-②-|
①②④④ |-③--|
①②口口 |④---|
口口③③ |----|
50
口口④① |①-②-|
①②口⑤ |③---|
┃口⑥③ |④-⑤-|
∧口口口 |⑥---|
51
口口口④ |①-②-|
口⑤①口 |③---|
口②口⑥ |④-⑤-|
口⑦③口 |⑥-⑦-|
52
口①④口 |①-②-|
口⑤口② |③---|
口③⑥口 |④-⑤-|
口口口口 |⑥---|
53
口⑥口⑦ |①-②-|
口口①口 |③---|
口口口② |④-⑤-|
口⑤③④ |⑥-⑦-|
54
①口④口 |①-②-|
①⑤②① |③---|
③口⑥┃ |④-⑤-|
口口口∧ |⑥---|
55
④口口口 |①-②-|
①口⑤口 |③---|
⑥②口口 |④-⑤-|
③口⑦口 |⑥-⑦-|
56
④口①口 |①-②-|
口②⑤口 |③---|
⑥口③口 |④-⑤-|
口口口口 |⑥---|
57
口①口口 |①--②|
④⑤⑤口 |--③-|
口口②口 |-④--|
③⑥⑥口 |⑤-⑥-|
58
口①口口 |①---|
口口口① |----|
①口口口 |----|
口口口口 |----|
59
口口①口 |①---|
①口口口 |----|
口口口① |----|
口口口口 |----|
60
口①口口 |①---|
口口口① |----|
①口口口 |----|
口口①口 |----|
61
口口①口 |①---|
①口口口 |----|
口口口① |----|
口①口口 |----|
62
①①①① |①---|
口口口口 |----|
口口口口 |----|
口口口口 |----|
63
口口口口 |①---|
口口口口 |----|
口口口口 |----|
①①①① |----|
64
⑭②①⑬ |①②③④|
④⑩⑨③ |⑤⑥⑦⑧|
⑥⑫⑪⑤ |⑨⑩⑪⑫|
⑯⑧⑦⑮ |⑬⑭⑮⑯|
65
口①①口 |①---|
口口口口 |----|
口口口口 |----|
口口口口 |----|
66
③①③① |①--②|
口⑧口⑦ |--③-|
口⑥口⑤ |-④--|
②④②④ |⑤⑥⑦⑧|
67
③①口② |①--②|
口口口口 |--③-|
口口①口 |-④--|
②④③④

口口口口
⑤口⑥口
⑦口⑧口
口口口口 |⑤⑥⑦⑧|
68
口②①口 |①--②|
⑦④⑧④ |--③-|
⑤①⑥② |-④--|
③口③口 |⑤⑥⑦⑧|
69
①口②口 |①--②|
⑤④⑥④ |--③-|
⑤①⑥② |-④--|
口③口③ |⑤-⑥-|
70
③①③① |①--②|
口⑧口⑦ |--③-|
口⑥口⑤ |-④--|
②④②④ |⑤⑥⑦⑧|
71
③①口② |①--②|
口口口口 |--③-|
口口①口 |-④--|
②④③④

口口口口
⑤口⑥口
⑦口⑧口
口口口口 |⑤⑥⑦⑧|
72
口②①口 |①--②|
⑦④⑧④ |--③-|
⑤①⑥② |-④--|
③口③口 |⑤⑥⑦⑧|
73
①口②口 |①--②|
⑤④⑥④ |--③-|
⑤①⑥② |-④--|
口③口③ |⑤-⑥-|
74
③①③① |①--②|
口⑧口⑦ |--③-|
口⑥口⑤ |-④--|
②④②④ |⑤⑥⑦⑧|
75
口④口④ |①--②|
①口①口 |--③-|
②口②口 |-④--|
③口③口

⑤口⑥口
⑦口⑧口
口口口口
口口口口 |⑤⑥⑦⑧|
76
口口口口 |①--②|
口口口口 |--③-|
③①③① |-④--|
④②④②

口口口口
口⑥口⑤
口⑧口⑦
口口口口 |⑤⑥⑦⑧|
77
②口①口 |①--②|
①⑤②⑤ |--③-|
④⑥③⑥ |-④--|
口③口④ |⑤-⑥-|
78
③①③① |①--②|
口⑧口⑦ |--③-|
口⑥口⑤ |-④--|
②④②④ |⑤⑥⑦⑧|
79
③①口② |①--②|
口口口口 |--③-|
口口①口 |-④--|
②④③④

口口口口
⑤口⑥口
⑦口⑧口
口口口口 |⑤⑥⑦⑧|
80
口②①口 |①--②|
⑦④⑧④ |--③-|
⑤①⑥② |-④--|
③口③口 |⑤⑥⑦⑧|
81
①③①③ |①--②|
口口口口 |--③-|
口④口⑤ |-④--|
⑥②④② |⑤-⑥-|
82
口口口口 |①-|
①━━<
口口口口
口口口口

⑨⑤口⑤ |②-|
②口⑧③ |③④-⑤|
口⑥④口 |-⑥⑦-|
口②⑦口 |⑧-⑨-|
83
口口口口 |①-|
口口口口
>━━①
口口口口

口口②⑥ |②-|
⑧④⑦口 |③④-⑤|
③口口② |-⑥⑦-|
口⑤⑨⑤ |⑧-⑨-|
84
口①口口 |①-|
口┃口口
口┃口口
口∧口口

⑨②⑤口 |②-|
口⑥口② |③④-⑤|
口③⑦⑤ |-⑥⑦-|
④⑧口口 |⑧-⑨-|
85
口口∨口 |①-|
口口┃口
口口┃口
口口①口

口⑤口⑤ |②-|
口⑨③口 |③④-⑤|
②口⑥④ |-⑥⑦-|
⑧口②⑦ |⑧-⑨-|
86
口口口口 |①-|
>━━①
口口口口
口口口口

⑤口⑤⑨ |②-|
③⑧口② |③④-⑤|
口④⑥口 |-⑥⑦-|
口⑦②口 |⑧-⑨-|
87
口口口口 |①-|
口口口口
①━━<
口口口口

⑥②口口 |②-|
口⑦④⑧ |③④-⑤|
②口口③ |-⑥⑦-|
⑤⑨⑤口 |⑧-⑨-|
88
口口①口 |①-|
口口┃口
口口┃口
口口∧口

口⑤②⑨ |②-|
②口⑥口 |③④-⑤|
⑤⑦③口 |-⑥⑦-|
口口⑧④ |⑧-⑨-|
89
口∨口口 |①-|
口┃口口
口┃口口
口①口口

⑤口⑤口 |②-|
口③口⑧ |③④-⑤|
④⑥口② |-⑥⑦-|
⑦②口⑧ |⑧---|
90
⑦③口② |①---|
①⑧④口 |②③-④|
口口⑨① |-⑤⑥-|
⑤⑦⑥⑩ |⑦⑧⑨⑩|
91
口⑦②③ |①---|
⑦口口① |②③-④|
①④口⑧ |-⑤⑥-|
⑤⑥⑧口 |⑦-⑧-|
92
②口③⑦ |①---|
口④⑧① |②③-④|
①⑨口口 |-⑤⑥-|
⑩⑥⑦⑤ |⑦⑧⑨⑩|
93
②③⑦口 |①---|
①口口⑦ |②③-④|
⑧口④① |-⑤⑥-|
口⑧⑥⑤ |⑦-⑧-|
94
口口口① |①-|
口口口┃
口口口┃
①口口∧

口⑤⑧② |②-|
②⑥③口 |③④-⑤|
口⑤⑦④ |-⑥⑦-|
口口⑨口 |⑧-⑨-|
95
①口口口 |①-|
┃口口口
┃口口口
∧口口①

②⑧⑧⑤ |②-|
口⑥口② |③④-⑤|
③口⑦⑤ |-⑥⑦-|
口④⑨⑨ |⑧-⑨-|
96
③口口④ |①-②-|
口⑤①口 |③-④-|
⑦口口⑥ |⑤-⑥-|
②口⑧口 |⑦-⑧-|
97
⑨②①⑤ |①②③④|
④⑩⑥③ |⑤⑥⑦⑧|
⑬⑦⑪⑭ |⑨⑩⑪⑫|
⑧⑮⑯⑫ |⑬⑭⑮⑯|
98
口①①口 |①---|
口口口口 |----|
口口口口 |----|
口口口口 |----|
最終更新:2019年11月20日 18:51