アットウィキロゴ
Alive in my Soul
aran

BASIC

Level: 3
BPM: 135
Notes: 211

1
口口口口 |----|
口口口口 |----|
口口口口 |----|
口口口口 |----|
2
口口口口 |①---|
③口口② |----|
口①①口 |②---|
口口口口 |③---|
3
口①①口 |①---|
口口口口 |----|
口口口口 |----|
口口口口 |----|
4
口口口口 |①---|
口①①口 |----|
口口口口 |----|
口口口口 |----|
5
口口口口 |①---|
口口口口 |----|
口①①口 |----|
口口口口 |----|
6
口口口口 |①---|
口口口口 |----|
口口口口 |----|
口①①口 |----|
7
口口口口 |①---|
口口口口 |----|
口口①① |----|
口口口口 |----|
8
口口口口 |①---|
口口口口 |----|
①①口口 |----|
口口口口 |----|
9
口口口口 |①---|
口口①① |----|
口口口口 |----|
口口口口 |----|
10
②口口② |①---|
①①口口 |----|
口口口口 |----|
口口口口 |②---|
11
口口①口 |①---|
口口②口 |②---|
口口③口 |③---|
口口口口 |----|
12
口①口口 |①---|
口②口口 |②---|
口③口口 |③---|
口口口口 |----|
13
口口口① |①---|
口口口② |②---|
口口口③ |③---|
口口口口 |----|
14
①口口口 |①---|
②口口口 |②---|
③口口口 |③---|
口口口口 |----|
15
口口口口 |①---|
口口①口 |②---|
口口②口 |③---|
口口③口 |----|
16
口口口口 |①---|
口①口口 |②---|
口②口口 |③---|
口③口口 |----|
17
口口口口 |①---|
口口口① |②---|
口口口② |③---|
口口口③ |----|
18
口口口口 |①---|
口②②口 |----|
口①①口 |②---|
口③③口 |③---|
19
口口口口 |①---|
口口口口 |②---|
口③②① |③---|
口口口口 |----|
20
口口口口 |①---|
①②③口 |②---|
口口口口 |③---|
口口口口 |----|
21
口口口口 |①---|
口口口口 |②---|
口③②① |③---|
口口口口 |----|
22
①口口④ |①---|
口②口口 |②---|
口口③口 |③---|
口口口口 |④---|
23
口口口口 |①---|
口口口口 |②---|
①②③口 |③---|
口口口口 |----|
24
口口口口 |①---|
口③②① |②---|
口口口口 |③---|
口口口口 |----|
25
口口口口 |①---|
口口口口 |②---|
①②③口 |③---|
口口口口 |----|
26
口口口口 |①---|
口①①口 |----|
口②②口 |②---|
口口口口 |----|
27
口口口口 |①---|
口口口① |②---|
口口②口 |③---|
口③口口 |----|
28
口口口口 |①---|
①口口口 |②---|
口②口口 |③---|
口口③口 |----|
29
口口口口 |①---|
口口口① |②---|
口口②口 |③---|
口③口口 |----|
30
口口口口 |①---|
口口口口 |----|
①①②② |②---|
口口口口 |----|
31
口口口口 |①---|
口①①口 |--②-|
口口口口 |----|
口②②口 |----|
32
口口口口 |①---|
口①①口 |--②-|
口口口口 |----|
口②②口 |----|
33
口口口口 |①---|
口②①口 |②---|
口④③口 |③---|
口口口口 |④---|
34
口口口口 |①---|
口口口口 |----|
口口口口 |----|
口口①口 |----|
35
口口口口 |①---|
口口口口 |----|
①①口口 |----|
口口口口 |----|
36
口口口口 |①---|
口口口口 |----|
口口①① |----|
口口口口 |----|
37
口口口口 |①---|
口口口口 |----|
①①口口 |----|
口口口口 |----|
38
口口口口 |①---|
口口口口 |----|
口口①① |----|
口口口口 |----|
39
口口口口 |①---|
口口口口 |----|
①①口口 |----|
口口口口 |----|
40
口口口口 |①---|
口口口口 |----|
口口①① |----|
口口口口 |----|
41
口口口口 |①---|
口口口口 |----|
①①口口 |----|
口口口口 |----|
42
口口口口 |①---|
口口口口 |----|
口口①① |----|
口口口口 |----|
43
口口口口 |①---|
①口①口 |----|
口口口口 |②---|
口②口口 |----|
44
口口口口 |①---|
口①口① |----|
口口口口 |②---|
口口②口 |----|
45
口口口口 |①---|
①口①口 |----|
口口口口 |②---|
口②口口 |----|
46
口口口口 |①---|
口①口① |----|
口口口口 |②---|
口口②口 |----|
47
口口口口 |①---|
①②①② |----|
口口口口 |②---|
口口口口 |----|
48
口口口口 |①---|
①②①② |----|
口口口口 |②---|
口口口口 |----|
49
口①口口 |①---|
口口②口 |②---|
口③口口 |③---|
口口④口 |④---|
50
口口口口 |①---|
口口口口 |②---|
口口②口
口①口口

口口口口
口③③口
口口口口 |③---|
口④④口 |④---|
51
口口口口 |①---|
口口口口 |②---|
①②③口 |③---|
口口口口 |----|
52
④口口① |①---|
口口②口 |②---|
口③口口 |③---|
口口口口 |④---|
53
口口口口 |①---|
口口口口 |②---|
口③②① |③---|
口口口口 |----|
54
①口口④ |①---|
口②口口 |②---|
口口③口 |③---|
口口口口 |④---|
55
口口口口 |①---|
口口口口 |②---|
①②③口 |③---|
口口口口 |----|
56
④口口① |①---|
口口②口 |②---|
口③口口 |③---|
口口口口 |④---|
57
口口口口 |①---|
口口口口 |②---|
口③②① |③---|
口口口口 |----|
58
口②②口 |①---|
口①①口 |----|
口③③口 |②---|
口口口口 |③---|
59
口口口口 |①---|
①②③④ |②---|
口口口口 |③---|
口口口口 |④---|
60
口口口口 |①---|
口口口口 |②---|
④③②① |③---|
口口口口 |④---|
61
口口口口 |①---|
①②③④ |②---|
口口口口 |③---|
口口口口 |④---|
62
口口口口 |①---|
口口口口 |②---|
④③②① |③---|
口口口口 |④---|
63
口口口口 |①---|
口①①口 |--②-|
口口口口 |----|
口②②口 |----|
64
口口口口 |①---|
①口口① |--②-|
口口口口 |----|
②口口② |----|
65
口口口口 |①---|
口①①口 |--②-|
口口口口 |----|
口②②口 |----|
66
口口口口 |①---|
口口口口 |②---|
④③②① |③---|
口口口口 |④---|
67
口口口口 |①---|
口①①口 |----|
口口口口 |----|
口口口口 |----|

accuracy: 100%
最終更新:2022年03月26日 03:29