アットウィキロゴ
Alive in my Soul
aran

ADVANCED

Level: 6
BPM: 135
Notes: 479

1
口口口口 |----|
口口口口 |----|
口口口口 |----|
口口口口 |----|
2
口口口口 |①---|
口②①口 |②---|
口④③口 |③---|
口口口口 |④---|
3
口口口口 |①--②|
①口口① |--③-|
②口口② |----|
③口口③ |----|
4
口口口口 |①--②|
口①①口 |--③-|
口②②口 |----|
口③③口 |----|
5
口口口口 |①--②|
①口口① |--③-|
②口口② |----|
③口口③ |----|
6
口口口口 |①--②|
口①①口 |--③-|
口②②口 |----|
口③③口 |----|
7
口口口口 |①--②|
①口口① |--③-|
②口口② |----|
③口口③ |----|
8
口口口口 |①--②|
口①①口 |--③-|
口②②口 |----|
口③③口 |----|
9
口口口口 |①--②|
①口口① |--③-|
②口口② |----|
③口口③ |----|
10
口口口口 |①---|
③口口② |----|
③①①② |②---|
口口口口 |③---|
11
④口①口 |①--②|
口⑤口口 |--③-|
口②⑥③ |④--⑤|
口口口口 |--⑥-|
12
口口①口 |①--②|
④④口口 |--③-|
口②口③ |④---|
口口⑤⑤ |⑤---|
13
④口①口 |①--②|
口⑤口口 |--③-|
口②⑥③ |④--⑤|
口口口口 |--⑥-|
14
口口①口 |①--②|
④④口口 |--③-|
口②口③ |④---|
口口⑤⑤ |⑤---|
15
口①口④ |①--②|
口口⑤口 |--③-|
③⑥②口 |④--⑤|
口口口口 |--⑥-|
16
口①口口 |①--②|
口口④④ |--③-|
③口②口 |④---|
⑤⑤口口 |⑤---|
17
口①口口 |①--②|
口口④④ |--③-|
③口②口 |④---|
⑤⑤口口 |⑤---|
18
口口口口 |①---|
口口口口 |----|
口①①口
口口口口

口口③口
②③口②
②口③② |②---|
口③口口 |③---|
19
①①口口 |①-②③|
口⑤口④ |-④⑤-|
口③口②
口口口口

⑦⑦口口
口口⑥口
口口⑥口 |⑥---|
口口口口 |⑦---|
20
口口①① |①-②③|
④口⑤口 |-④⑤-|
②口③口
口口口口

口口⑦⑦
口⑥口口
口⑥口口 |⑥---|
口口口口 |⑦---|
21
①①口口 |①-②③|
口⑤口④ |-④⑤-|
口③口②
口口口口

⑦⑦口口
口口⑥口
口口⑥口 |⑥---|
口口口口 |⑦---|
22
口口①口 |①-②③|
口①口口 |-④⑤-|
口口口口
④②③⑤

口口⑦口
⑥⑦口⑥
⑥口⑦⑥ |⑥---|
口⑦口口 |⑦---|
23
①①口口 |①-②③|
口⑤口④ |-④⑤-|
口③口②
口口口口

⑦⑦口口
口口⑥口
口口⑥口 |⑥---|
口口口口 |⑦---|
24
口口①① |①-②③|
④口⑤口 |-④⑤-|
②口③口
口口口口

口口⑦⑦
口⑥口口
口⑥口口 |⑥---|
口口口口 |⑦---|
25
①①口口 |①-②③|
口⑤口④ |-④⑤-|
口③口②
口口口口

⑦⑦口口
口口⑥口
口口⑥口 |⑥---|
口口口口 |⑦---|
26
口口①① |①-②③|
④口⑤口 |-④⑤-|
②口③口
口口口口

口口⑦⑦
口⑥口口
口⑥口口 |⑥---|
口口口口 |⑦---|
27
①口口口 |①-②-|
⑧②④口 |③-④-|
口⑤③⑦ |⑤-⑥-|
⑥口口口 |⑦-⑧-|
28
口口口① |①-②-|
口④②⑧ |③-④-|
⑦③⑤口 |⑤-⑥-|
口口口⑥ |⑦-⑧-|
29
①口口口 |①-②-|
⑧②④口 |③-④-|
口⑤③⑦ |⑤-⑥-|
⑥口口口 |⑦-⑧-|
30
口口口口 |①---|
口①口① |②---|
②口②口
口口口口

口口口口
口④④口
口口口口 |③---|
口③口③ |④---|
31
①口口① |①---|
口口口口 |--②-|
口③③口 |----|
②口口② |③---|
32
①口口① |①---|
口口口口 |--②-|
口③③口 |----|
②口口② |③---|
33
口口①口 |①---|
口②口口 |②---|
口口③口 |③---|
口④口口 |④---|
34
口①口口 |①---|
口口②口 |②---|
口③口口 |③---|
口口④口 |④---|
35
口口口口 |①---|
口口口口 |----|
①口口① |----|
口口口口 |----|
36
口口口口 |①---|
口①①口 |----|
口口口口 |----|
口口口口 |----|
37
口口口口 |①---|
①口口① |----|
口口口口 |----|
口口口口 |----|
38
口口口口 |①---|
口①①口 |----|
口口口口 |----|
口口口口 |----|
39
①口口① |①---|
口口口口 |----|
口口口口 |----|
口口口口 |----|
40
口口口口 |①---|
口①①口 |----|
口口口口 |----|
口口口口 |----|
41
口口口口 |①---|
口口口口 |----|
①口口① |----|
口口口口 |----|
42
口口口口 |①---|
口①①口 |----|
口口口口 |----|
口口口口 |----|
43
口口口口 |①--②|
口口①口 |--③-|
口④口④ |④---|
口②口③ |----|
44
口口口口 |①--②|
口①口口 |--③-|
④口④口 |④---|
③口②口 |----|
45
口口口口 |①--②|
口口①口 |--③-|
口④口④ |④---|
口②口③ |----|
46
口口口口 |①--②|
口①口口 |--③-|
口口口口
③口②口

口口口口
口⑤口⑤
④口④口 |④---|
口口口口 |⑤---|
47
口口口口 |①--②|
口④①口 |--③-|
口口口口 |④--⑤|
⑥②⑤③ |--⑥-|
48
口④①口 |①--②|
口口口口 |--③-|
⑥②⑤③ |④--⑤|
口口口口 |--⑥-|
49
⑤⑤①① |①--②|
②②⑥⑥ |--③-|
口口③③ |-④--|
④④口口 |⑤--⑥|
50
口口口口 |--①-|
⑤③口⑤ |-②--|
①①④口 |③-④-|
口口②② |⑤---|
51
①①⑤④ |①-②③|
口⑥②⑤ |--④-|
⑥③⑦口 |⑤--⑥|
口口口⑦ |--⑦-|
52
①①口④ |①-②③|
口⑤②⑤ |--④-|
口③口口 |⑤---|
⑥口⑥口 |⑥---|
53
④⑤①① |①-②③|
⑤②⑥口 |--④-|
口⑦③⑥ |⑤--⑥|
⑦口口口 |--⑦-|
54
④口①① |①-②③|
⑤②⑤⑦ |--④-|
口口③⑦ |⑤-⑥-|
⑥口⑥口 |⑦---|
55
①①⑤④ |①-②③|
口⑥②⑤ |--④-|
⑥③⑦口 |⑤-⑥-|
口口口⑦ |⑦---|
56
①①口④ |①-②③|
口⑤②⑤ |--④-|
口③口口 |⑤---|
⑥口⑥口 |⑥---|
57
④口①① |①-②③|
⑤②口⑤ |--④-|
口口③口 |⑤---|
⑥口口⑥ |⑥---|
58
口口口口 |①---|
口口口口 |----|
口①①口
口口口口

口口③口
②③口②
②口③② |②---|
口③口口 |③---|
59
①①⑤④ |①-②③|
⑦口②⑧ |--④-|
⑤③口口 |⑤-⑥⑦|
口⑧⑥口 |--⑧-|
60
①①口④ |①-②③|
⑤口②⑤ |--④-|
口③口口 |⑤---|
口⑥⑥口 |⑥---|
61
④⑤①① |①-②③|
⑦②口⑥ |--④-|
口口③⑤ |⑤--⑥|
口⑥⑦口 |--⑦-|
62
④口①① |①-②③|
⑤②⑤⑦ |--④-|
口口③⑦ |⑤-⑥-|
⑥口⑥口 |⑦---|
63
①①⑤④ |①-②③|
⑥口②⑦ |--④-|
⑤③口口 |⑤--⑥|
口⑦⑥口 |--⑦-|
64
①①口④ |①-②③|
⑦⑤②⑤ |--④-|
⑦③口口 |⑤-⑥-|
口⑥口⑥ |⑦---|
65
①口口① |①---|
口③③口 |--②-|
②口口② |----|
口口口口 |③---|
66
①③③① |①---|
②④④② |②---|
口⑤⑤口 |③-④-|
口口口口 |⑤---|
67
①口口① |①---|
口口口口 |----|
①口口① |----|
口口口口 |----|

accuracy: 100%
最終更新:2022年03月26日 03:29