アットウィキロゴ
Alive in my Soul
aran

EXTREME

Level: 8
BPM: 135
Notes: 746

1
口口口口 |----|
口口口口 |----|
口口口口 |----|
口口口口 |----|
2
口②①口 |①②③④|
⑬④③⑬ |⑤⑥⑦⑧|
⑩⑥⑤⑨ |⑨⑩⑪⑫|
⑫⑧⑦⑪ |⑬---|
3
口①②口 |①--②|
③口口③ |--③-|
口②①口 |----|
口口口口 |----|
4
口口口口 |①--②|
口①②口 |--③-|
③口口③ |----|
口②①口 |----|
5
口②①口 |①--②|
③口口③ |--③-|
口①②口 |----|
口口口口 |----|
6
口口口口 |①--②|
口②①口 |--③-|
③口口③ |----|
口①②口 |----|
7
口①②口 |①--②|
③口口③ |--③-|
口②①口
口口口口

口口口④
口口④口
口口⑤口 |④---|
口口口⑤ |⑤---|
8
口口口口 |①--②|
口①②口 |--③-|
③口口③
口②①口

口④口口
④口口口
口口口口 |④---|
口口⑤⑤ |⑤---|
9
口②①口 |①--②|
③口口③ |--③-|
口①②口
口口口口

④口口口
口④口口
口⑤口口 |④---|
⑤口口口 |⑤---|
10
④口①④ |①-②-|
口②口口 |③--④|
口口③口
口口口口

口⑤⑤口
口口口口
口口口口 |--⑤-|
⑥⑥⑥⑥ |⑥---|
11
⑦④④⑤ |①-②③|
②⑤③① |--④-|
⑦①口⑥ |⑤--⑥|
口⑥口口 |--⑦-|
12
口⑤⑤④ |①-②③|
①③④② |--④-|
⑤⑤①④ |⑤---|
口⑥⑥⑥ |⑥---|
13
⑤④④⑦ |①-②③|
①③⑤② |--④-|
⑥口①⑦ |⑤--⑥|
口口⑥口 |--⑦-|
14
④口⑤⑥ |①-②③|
②④③① |--④-|
④①⑤⑥ |⑤-⑥-|
⑦⑦⑦口 |⑦---|
15
⑦④④⑤ |①-②③|
②⑤③① |--④-|
⑦①口⑥ |⑤--⑥|
口⑥口口 |--⑦-|
16
口⑤⑤④ |①-②③|
①③④② |--④-|
⑤⑤①④ |⑤---|
口⑥⑥⑥ |⑥---|
17
④⑤口⑤ |①-②③|
①③④② |--④-|
④口①口 |⑤---|
⑥⑥⑥口 |⑥---|
18
口口①口 |①---|
口①口① |----|
口①口①
口口口口

②口口③
②口③口
②口口③ |②---|
②口③口 |③---|
19
⑦①①⑪ |①-②③|
④②⑫③ |④⑤⑥-|
口⑦口⑧ |⑦-⑧⑨|
⑩⑤⑨⑥ |⑩⑪⑫-|
20
⑫①①⑪ |①-②③|
④②口③ |④⑤⑥-|
口⑦口⑧ |⑦-⑧⑨|
⑩⑤⑨⑥ |⑩⑪⑫-|
21
⑪①①⑦ |①-②③|
③⑫②④ |④⑤⑥-|
⑧口⑦口 |⑦-⑧⑨|
⑥⑨⑤⑩ |⑩⑪⑫-|
22
口①①口 |①-②③|
口口口④ |④⑤⑥-|
口③⑤口
口⑥②口

⑦口口⑧
⑦口⑧口
⑦口口⑧ |⑦---|
⑦口⑧口 |⑧---|
23
⑦①①⑪ |①-②③|
④②⑫③ |④⑤⑥-|
口⑦口⑧ |⑦-⑧⑨|
⑩⑤⑨⑥ |⑩⑪⑫-|
24
⑫①①⑪ |①-②③|
④②口③ |④⑤⑥-|
口⑦口⑧ |⑦-⑧⑨|
⑩⑤⑨⑥ |⑩⑪⑫-|
25
⑪①①口 |①-②③|
③⑫②④ |④⑤⑥-|
⑧口⑦口 |⑦-⑧⑨|
⑥⑨⑤⑩ |⑩⑪⑫-|
26
⑪①①⑦ |①-②③|
③⑫②④ |④⑤⑥-|
⑧口⑦口 |⑦-⑧⑨|
⑥⑨⑤⑩ |⑩⑪⑫-|
27
口口口口 |①②③④|
②口①⑥ |⑤-⑥⑦|
口⑤⑦口
④口③口

⑧⑨⑩口
⑪口⑫口
口口口口 |⑧⑨⑩-|
⑬口⑭口 |⑪⑫⑬⑭|
28
口口口口 |①②③④|
⑥①口② |⑤-⑥⑦|
口⑦⑤口
口③口④

口⑩⑨⑧
口⑫口⑪
口口口⑬ |⑧⑨⑩-|
口口口口 |⑪⑫⑬-|
29
口口口口 |①②③④|
②口①⑥ |⑤-⑥⑦|
口⑤⑦口
④口③口

⑧⑨⑩口
口⑬⑭口
口口口口 |⑧⑨⑩-|
口⑪⑫口 |⑪⑫⑬⑭|
30
②口口① |①---|
②口口① |②---|
②口口①
口口口口

口⑤⑤口
口口口④
口口口口 |③-④-|
口③③口 |⑤---|
31
口⑦⑦④ |①②③-|
①④②口 |④-⑤-|
③⑥⑥⑤ |--⑥-|
口⑤口口 |⑦---|
32
②⑤⑤口 |①--②|
口口②口 |--③-|
③④④口 |--④-|
①口③① |⑤---|
33
②口口④ |①---|
①口口① |②---|
③口口③ |③---|
口口口口 |④---|
34
②口口口 |①---|
⑥口③⑥ |②---|
⑥④口⑥ |③④⑤-|
①口⑤① |⑥---|
35
①口口② |①--②|
口③③口 |--③-|
口②①口 |----|
口口口口 |----|
36
口口口口 |①--②|
②口口① |--③-|
口③③口 |----|
口①②口 |----|
37
口③③口 |①--②|
①口口② |--③-|
口②①口 |----|
口口口口 |----|
38
口口口口 |①--②|
口②①口 |--③-|
①口口② |----|
口③③口 |----|
39
口①口① |①--②|
②口①③ |--③-|
②口口③ |----|
口口口口 |----|
40
①口①口 |①--②|
③①口② |--③-|
③口口② |----|
口口口口 |----|
41
口口口口 |①--②|
②口口③ |--③-|
②口①③ |----|
口①口① |----|
42
口口口口 |①--②|
③口口② |--③-|
③①口② |----|
①口①口 |----|
43
口①④口 |①--②|
②⑥②④ |--③-|
⑤①口口 |④---|
③⑤③口 |⑤-⑥-|
44
口①④口 |①--②|
②口②④ |--③-|
⑤①⑥口 |④---|
③⑤③口 |⑤-⑥-|
45
口③⑤③ |①--②|
口口①⑤ |--③-|
④②⑥② |④---|
口④①口 |⑤-⑥-|
46
口③口③ |①--②|
口口①口 |--③-|
口②口②
口口①口

口口④口
口⑤⑦口
④⑧⑥口 |④-⑤-⑥-|
口④⑨口 |⑦-⑧-⑨-|
47
①⑥③① |①--②|
④②⑤④ |--③-|
口⑥③口 |④--⑤|
口②⑤口 |--⑥-|
48
口⑥③口 |①--②|
口②⑤口 |--③-|
①⑥③① |④--⑤|
④②⑤④ |--⑥-|
49
③⑤⑥① |①--②|
⑥①③⑤ |--③-|
④⑤⑥② |-④--|
口②④口 |⑤--⑥|
50
③④⑤⑥ |--①-|
⑧①②⑧ |-②--|
②⑦⑦① |③④⑤⑥|
口①②口 |⑦-⑧-|
51
⑧⑥⑤口 |①-②③|
⑥⑨②⑥ |④-⑤-|
④⑦⑦① |⑥--⑦|
①③口⑨ |⑧-⑨-|
52
口口⑤口 |①-②③|
口口②口 |④-⑤-|
④口口①
①③口口

⑦口口口
⑥口口⑥
口⑥⑥口 |⑥---|
⑦口口口 |⑦---|
53
口⑤⑥⑧ |①-②③|
⑥②⑨⑥ |④-⑤-|
①⑦⑦④ |⑥--⑦|
⑨口③① |⑧-⑨-|
54
口⑤口口 |①-②③|
口②口口 |④-⑤-|
①口口④
口口③①

口口口⑧
⑥口口⑥
口⑦⑦口 |⑥-⑦-|
口口口⑧ |⑧---|
55
⑧⑥⑤口 |①-②③|
⑥⑨②⑥ |④-⑤-|
④⑦⑦① |⑥--⑦|
①③口⑨ |⑧-⑨-|
56
口口⑤口 |①-②③|
口口②口 |④-⑤-|
④口口①
①③口口

⑦口口口
⑥口口⑥
口⑥⑥口 |⑥---|
⑦口口口 |⑦---|
57
口⑤⑥⑦ |①-②③|
⑥②口⑥ |④-⑤-|
①口口④ |⑥---|
⑦口③① |⑦---|
58
口口口口 |①---|
口口①口 |----|
口①口①
口①口①

②口口③
②口③口
②口口③ |②---|
②口③口 |③---|
59
口⑤⑤口 |①-②③|
④口口① |④-⑤-|
②①③口
口口口口

⑨口口⑥
口⑥⑧口
⑨口口⑦ |⑥--⑦|
口⑦口口 |⑧-⑨-|
60
口⑥⑥⑤ |①-②③|
①③⑤② |④-⑤-|
⑥⑥①⑤ |⑥---|
④⑦⑦⑦ |⑦---|
61
口⑤⑤口 |①-②③|
①口口④ |④-⑤-|
口③①②
口口口口

⑥口口⑨
口⑧⑥口
⑦口口⑨ |⑥--⑦|
口口⑦口 |⑧-⑨-|
62
⑤口口口 |①-②③|
②⑤③① |④-⑤-|
⑤①口口
口口口④

口口⑥⑦
⑨口⑨口
口口⑥⑦ |⑥-⑦-|
⑧⑧⑧口 |⑧-⑨-|
63
④⑥⑥④ |①-②③|
口③口② |--④-|
⑤①口⑤ |⑤--⑥|
口⑦⑦① |--⑦-|
64
④口口④ |①-②③|
②口③口 |--④-|
口口①口
①口口口

口⑥⑥口
口口口口
⑤⑦⑦⑤ |⑤-⑥-|
口口口口 |⑦---|
65
⑥⑤④③ |①--②|
口口②① |--③-|
⑤⑥③④ |-④--|
口口①② |⑤--⑥|
66
口口口口 |--①-|
②①口口 |-②--|
口口口口
①②口口

口⑦⑦口
口⑧⑧口
⑥⑤④③ |③④⑤⑥|
口口口口 |⑦-⑧-|
67
①口口① |①---|
①口口① |----|
口口口口 |----|
口口口口 |----|

accuracy: 100%
最終更新:2022年03月26日 03:29