アットウィキロゴ
Singularity
xi

EXTREME

Level: 10.5
BPM: 197
Notes(hold): 958(71)

1
口口口口 |----|
口口口口 |----|
口口口口 |----|
口口口口 |----|
2
口口口口 |----|
口口口口 |----|
口口口口 |----|
口口口口 |----|
3
⑦⑥⑤口 |①-②-|
④口口⑧ |③-④-|
②口③口 |⑤⑥⑦-|
口⑨①口 |⑧-⑨-|
4
⑦口⑤① |①-②③|
④③②口 |④-⑤-|
口口⑥① |⑥-⑦-|
口口口口
5
口⑤⑥⑦ |①-②-|
⑧口口④ |③-④-|
口③口② |⑤⑥⑦-|
口①⑨口 |⑧-⑨-|
6
①⑤口⑥ |①-②③|
口②③④ |④-⑤-|
①⑦口口 |⑥-⑦-|
口口口口
7
⑦⑥⑤口 |①-②-|
④口口⑧ |③-④-|
②口③口 |⑤⑥⑦-|
口⑨①口 |⑧-⑨-|
8
⑦口⑤① |①-②③|
④③②口 |④-⑤-|
口口⑥① |⑥-⑦-|
口口口口
9
口⑤⑥⑦ |①-②-|
⑧口口④ |③-④-|
口③口② |⑤⑥⑦-|
口①⑨口 |⑧-⑨-|
10
①⑤⑧⑥ |①-②③|
口②③④ |④-⑤-|
①口⑦⑨ |⑥⑦⑧⑨|
⑩⑩⑪⑪ |⑩-⑪-|
11
∨口口口 |①---|
┃口口② |②-③-|
①③口口
口口口口

口⑥━<
口⑤口口
⑥口④④ |--④-|
口口口口 |⑤-⑥-|
12
口口口① |----|
口口②口 |①---|
口③口口 |②---|
口口口口 |③---|
13
口①口∨ |①---|
口③口┃ |②-③-|
口口口①
②口口口

>━⑥口
口口⑤口
④④口⑥ |--④-|
口口口口 |⑤-⑥-|
14
口⑦①⑦ |----|
①⑥⑤④ |①-②-|
口口②口 |③-④⑤|
③口口口 |⑥-⑦-|
15
∨口②口 |①---|
┃口④③ |②---|
①口②口 |③-④-|
口口⑥⑤ |⑤-⑥-|
16
④④口∨ |①---|
②⑥⑤┃ |②-③-|
①⑤⑥① |④---⑤-|
口③口口 |--⑥---|
17
⑥④口① |①---②-|
②口⑤③ |--③---|
①口⑥① |④---⑤-|
③⑤②④ |--⑥---|
18
⑥口①③ |①---②-|
④②口⑤ |--③---|
③①⑥② |④---⑤-|
口⑤④口 |--⑥---|
19
口①①⑤ |①-②-|
口口⑥口 |③-④-|
③⑦口② |⑤-⑥-|
⑧口口④ |⑦-⑧-|
20
①②⑧⑦ |①②③④|
③④⑩⑨ |⑤-⑥-|
⑤口口⑪ |⑦⑧⑨⑩|
口⑫⑥口 |⑪-⑫-|
21
>①口口 |①---|
①<口口
口口口口
口口口口

⑨②⑦口
②口⑧口 |--②-|
③④⑤⑥ |③④⑤⑥|
口口②口 |⑦⑧-⑨|
22
口⑥口⑤ |①②-③|
⑨②⑨① |④-⑤⑥|
口⑧口⑦ |-⑦⑧-|
⑩④⑩③ |⑨-⑩-|
23
口口①< |①---|
口口>①
口口口口
口口口口

口口②口
⑦口⑥② |--②-|
口⑤④③ |③④⑤-|
口②口口 |⑥-⑦-|
24
③口③口 |①--②|
口①口口 |--③-|
口口口口
①口②②

口⑥口⑦
口⑧⑤⑨
口④口口 |④-⑤-|
口口口口 |⑥⑦⑧⑨|
25
口口口口 |①---|
口口口口
①<口口
>①口口

③口④口
⑧口⑤口 |②-③-|
②口⑥口 |④⑤⑥⑦|
⑨②⑦② |⑧-⑨-|
26
⑨⑤⑧⑥ |①②-③|
⑪③⑩④ |④-⑤⑥|
口①口② |--⑦-|
口⑦口口 |⑧⑨⑩⑪|
27
口口口口 |①---|
口口口口
口口>①
口口①<

⑤⑦口③
口口口口 |-②-③|
②④⑥② |-④-⑤|
口口②口 |-⑥-⑦|
28
⑩口口口 |①②③④|
④③②① |⑤⑥⑦⑧|
口⑨⑪⑨ |⑨-⑩-|
⑧⑦⑥⑤ |--⑪-|
29
口口①< |①---|
口口>①
口口口口
口口口口

口口②⑩
②③⑧② |②③④⑤|
④⑤口⑨ |⑥⑦-⑧|
⑥⑦口口 |-⑨-⑩|
30
②①⑤口 |①②-③|
口⑨⑬⑩ |-④-⑤|
④⑪③⑫ |⑥⑦⑧⑨|
⑤⑥⑦⑧ |⑩⑪⑫⑬|
31
>①口口 |①---|
①<口口
口口口口
口口口口

④②⑥③
②⑧口⑧ |②③-④|
⑤⑦②口 |-⑤-⑥|
口口口口 |⑦-⑧-|
32
⑤③⑤② |①--②|
③口①⑥ |--③-|
口口②口 |④-⑤-|
④口④① |--⑥-|
33
口口口口 |①---|
口口口口
①<口口
>①口口

⑦口口口
∧③②口 |②③④⑤|
②⑤④口 |⑥-⑦-|
口②⑥口

⑧>⑧口
口口口口
口口口口
口口口口 |--⑧-|
34
口⑨①⑤ |--①②|
①⑩②⑥ |③-④-|
③⑪口⑦ |⑤⑥⑦⑧|
口⑫④⑧ |⑨⑩⑪⑫|
35
③口⑤⑥ |①--②|
①⑤②口 |--③-|
②口①④ |④--⑤|
③口④⑥ |--⑥-|
36
口③⑤口 |①--②|
④⑥②③ |--③-|
②①①口 |④-⑤-|
口口口口 |--⑥-|
37
∨②③④ |①---|
┃口口口 |--②-|
┃②③④ |--③-|
①口口① |--④-|
38
口②口口 |--①-|
②⑤④③ |--②-|
口⑧⑦⑥ |--③④|
③口①① |⑤⑥⑦⑧|
39
∨口③① |①---|
┃④口口 |--②-|
①口口口 |--③-|
口④口② |--④-|
40
口④④口 |--①-|
口口①② |--②-|
④③③口 |--③-|
口口①② |④---|
41
口⑥口① |①---②-|
④①③⑥ |--③---|
口⑤口② |④---⑤-|
④②③⑤ |--⑥---|
42
①口②口 |①---②-|
⑤③④口 |--③---|
①⑥②③ |④---⑤-|
⑤口④⑥ |--⑥---|
43
①口③口 |①-②-③-|
⑪⑤⑨⑦ |④-⑤-⑥-|
⑧⑫②⑥ |⑦-⑧-⑨-|
⑩④口口 |⑩-⑪-⑫-|
44
口⑤③① |①-②-③-|
⑪⑩⑨⑧ |④-⑤-⑥-|
⑦口口⑦ |⑦-⑧⑨|
口⑥④② |⑩⑪--|
45
①口口① |①---|
②口口口 |----|
口口口口 |----|
口口口口 |②---|
46
口口口口 |----|
口口口① |①---|
口口②口 |②---|
口口口口
47
口口②口 |①---|
③口口口 |--②-|
口口口口 |----|
口①口口 |③---|
48
口口口口 |--①-|
口口口口 |----|
口口①口 |②---|
②口口口
49
口口①口 |①---|
①②口口 |--②-|
口口③② |----|
③口口口 |③---|
50
②口口② |--①-|
口口口口 |----|
口①口口 |②---|
口口口①
51
口⑤口口 |①-②-|
口口⑥④ |③-④-|
①⑦③① |⑤-⑥-|
口②⑧口 |⑦-⑧-|
52
②口⑦① |①--②③④|
③⑥⑧⑥ |⑤-⑥-|
④⑨⑨⑦ |⑦---⑧-|
⑤⑧口口 |--⑨---|
53
①━━< |①---|
口口口② |--②-|
口口口口 |----|
口③口口 |③---|
54
③口口口 |--①-|
口②口口 |----|
口口③① |②---|
口口口口 |③---|
55
口③口口 |①---|
>━━① |--②-|
②口口口 |----|
口口口口 |③---|
56
口口②口 |--①-|
口③口③ |----|
口口①口 |②---|
口口口口 |③---|
57
口口口口 |①---|
口口③口 |--②-|
①━━< |----|
口口口② |③---|
58
③口口③ |--①-|
口④④口 |②---|
②口口口 |③---|
口①口口 |④---|
59
⑤①③⑤ |①---②-|
③口口① |--③---|
⑥④②⑥ |④---⑤-|
口口口口 |--⑥---|
60
口⑤⑤口 |①---②-|
④②①③ |--③---|
口④③口 |④---⑤-|
①⑥⑥② |--⑥---|
61
口口口口 |①---|
口口口口 |----|
①━━< |----|
口口口口 |----|
62
口口口口 |①---|
①━━< |----|
①口口口 |----|
口口口口 |----|
63
口③⑤④ |①-②-|
①口⑥口 |③-④-|
口①⑦② |⑤⑥⑦⑧|
⑨口⑧⑨ |⑨---|
64
①口口② |①---|
┃口口② |②---|
∧①━<
口口口口

③口③口
口口口口
口③口③ |----|
口口口口 |③---|
65
口③口③ |①-②-|
口①②口 |--③-|
口口口口 |--④-|
口④口④

口口口口
口>━⑤
口口口口
>━⑤口 |--⑤-|
66
口④∨口 |----|
④口┃① |--①②|
①②③口 |③---|
口口①口 |④---|
67
口口口口 |①---|
口口②口 |②---|
④口②③ |③-④-|
⑥①口⑤ |⑤-⑥-|
68
①口口口 |①---|
┃口口② |②---|
∧①━<
口口②口

③口③口
口口口口
口③口③ |----|
口口口口 |③---|
69
口③口③ |①-②-|
口①②口 |--③-|
口口口口 |--④-|
口④口④

口口口口
口>━⑤
口口口口
>━⑤口 |--⑤-|
70
口④∨口 |----|
④口┃① |--①②|
①②③口 |③---|
口口①口 |④---|
71
口口口口 |①---|
口③②③ |②---|
口口②口 |③---|
④①④口 |④---|
72
>①②③ |①---|
①口口④ |②③④-|
∧口口口
口口口口

口⑦口口
⑦口口口
口口⑤⑥ |--⑤⑥|
口口口⑦ |⑦---|
73
口口口口 |①---|
∨口口口
①口口口
>①口口

口口③②
口⑤④口 |②③④-|
②口⑦⑥ |⑤-⑥⑦|
⑧②⑧口 |⑧---|
74
口口口口 |①---|
口口口口
>①口口
口口口口

④<②③
口口口④ |②③④-|
口②口口
口口口口

⑦口口口
口口口口
口口⑤⑥ |--⑤⑥|
口口口⑦ |⑦---|
75
口∨口口 |①-|
口①口口
口口口口
口口口口

口口④③ |②-|
口②口口 |③④|
③口口口
∧口口口

∨口口口
⑥口⑤口 |⑤-|
⑤口口口 |⑥-|
口口口口

口口口口
⑦口口口
口⑨⑧⑦ |⑦⑧|
口∧⑨口 |⑨-|

口口口口
口口口口
口⑩口口
口口口口 |⑩-|
76
口口口口 |①---|
口①口① |②-③-|
口口口口
②口口③

口口口口
口口⑦口
④⑥口⑤ |④-⑤-|
口口口口 |⑥-⑦-|
77
口③②④ |①---|
①口①② |②-③-④-|
口口口口
口口口口

口口口口
口⑧⑩口
⑤⑨⑧口 |⑤-⑥-⑦-|
⑦⑤⑥口 |⑧-⑨-⑩-|
78
①③④口 |①-②-|
①口口口 |--③-|
口⑤⑤② |--④-|
口③④② |--⑤-|
79
口⑦⑦口 |--①②|
④③②① |③④⑤⑥|
⑥口口⑤ |⑦---|
⑧口口⑧ |⑧---|
80
①口口口 |①---|
┃口口口
∧①━<
口口口口

②⑦⑥⑤
口④③② |②-③-④-|
口②⑧⑧ |⑤-⑥-⑦-|
口口②口 |⑧---|
81
④口口④ |①-②-|
口③③⑤ |--③-|
①②口┃ |--④-|
>━⑤∧ |--⑤-|
82
⑥⑥∨口 |----|
①②┃① |①②③④|
③④⑤口 |⑤---|
口口①口 |⑥---|
83
口口口口 |①---|
口口②口 |②---|
④口②③ |③-④-|
⑥①口⑤ |⑤-⑥-|
84
①口口口 |①---|
┃口口② |②---|
∧①━<
口口②口

③口③口
口口口口
口③口③ |----|
口口口口 |③---|
85
⑥③⑤③ |①-②-|
口①②口 |--③-|
④口④口 |④--⑤|
⑥口⑤口 |--⑥---|
86
口口口口 |①---|
口口>①
口口口∨
口口口①

口口口口
②口③② |--②③|
④━━< |④---|
口口口②

口⑤口口
口⑥口口
口⑦口口
口⑧口口 |⑤⑥⑦⑧|
87
口口①① |①---|
③④③口 |②---|
②口②② |③---④-|
④⑤⑤口 |--⑤---|
88
③②①< |①---|
④口口① |②③④-|
口口口∧
口口口口

口口⑦口
口口口⑦
⑥⑤口口 |--⑤⑥|
⑦口口口 |⑦---|
89
口口口口 |①---|
口口口∨
口口口①
口口①<

②③口口
口④⑤口 |②③④-|
⑥⑦口② |⑤-⑥⑦|
口⑧②⑧ |⑧---|
90
口口口口 |①---|
口口口口
口口①<
口口口口

③②>④
④口口口 |②③④-|
口口②口
口口口口

口口口⑦
口口口口
⑥⑤口口 |--⑤⑥|
⑦口口口 |⑦---|
91
口口∨口 |①-|
口口①口
口口口口
口口口口

③④口口 |②-|
口口②口 |③④|
口口口③
口口口∧

口口口∨
口⑤口⑥ |⑤-|
口口口⑤ |⑥-|
口口口口

口口口口
口口口⑦
⑦⑧⑨口 |⑦⑧|
口⑨∧口 |⑨-|

口口口口
口口口口
口口⑩口
口口口口 |⑩-|
92
口口口口 |①---|
①口①口 |②-③-|
口口口口
③口口②

口口口口
口口口口
⑤⑦⑥④ |④-⑤-|
口口口口 |⑥-⑦-|
93
④②③口 |①---|
②①口① |②-③-④-|
口口口口
口口口口

口口口口
口⑩⑧口
口⑧⑨⑤ |⑤-⑥-⑦-|
口⑥⑤⑦ |⑧-⑨-⑩-|
94
口④口① |①-②-|
④⑥⑤① |--③-|
②⑤⑥③ |④---⑤-|
②口③口 |--⑥---|
95
④⑩⑦① |①-②-③-|
口口口口 |④-⑤-⑥-|
②⑧⑪⑤ |⑦-⑧-⑨-|
⑫③⑥⑨ |⑩-⑪-⑫-|
96
口①①口 |----|
口口口口 |----|
口口口口 |----|
口①①口 |①---|
97
口⑥口④ |①--②|
①②③⑧ |--③-|
①②③⑤ |④-⑤-⑥-|
口⑨口⑦ |⑦-⑧-⑨-|
98
①口③口 |①-②-③-|
⑤⑧⑦口 |④-⑤-⑥-|
②⑩⑨口 |⑦⑧⑨⑩|
④口⑥口
99
口①⑤① |①--②|
口口⑤③ |--③-|
口口口③ |--④-|
④②④② |-⑤--|
100
①②口④ |①---②-|
①口口口 |③-④-⑤-|
⑤③口口 |⑥⑦⑧⑨|
⑨⑧⑦⑥
101
口口口口 |①--②|
口③②① |--③-|
口③②①
口口口口

④⑧⑥⑦
口口口口
⑤口口⑨ |④-⑤-⑥-|
口口口口 |⑦-⑧-⑨-|
102
口口口口 |①②③④|
⑤⑥⑦⑧ |⑤⑥⑦⑧|
⑨⑩⑪口 |⑨⑩⑪-|
①②③④
103
②③①① |①--②|
④⑤⑥⑦ |--③-|
⑧⑨⑩⑪ |④⑤⑥⑦|
②③口口 |⑧⑨⑩⑪|
104
口口①① |①--②|
口口口口 |--③-|
口口口口
③③②②

口⑧口⑨
④⑤⑥⑦
⑧口⑨口 |④⑤⑥⑦|
口口口口 |⑧-⑨-|
105
口∨∨口 |----|
口┃┃口 |①---|
口┃┃口 |----|
口①①口 |----|
106
口口口口 |----|
口口口口 |----|
口口口口 |----|
口口口口 |----|
107
口口口口 |----|
口口口口 |----|
口口口口 |----|
口口口口 |----|
108
口口口口 |----|
口口口口 |----|
①②③④ |----|
口口口口 |①②③④|
109
口口口口 |①---|
口口口口 |----|
口口口口 |----|
口①①口 |----|
最終更新:2019年12月05日 16:16