アットウィキロゴ
Rampage☆Rag
かめりあ

BASIC

Level: 6
BPM: 334
Notes: 447

BPM: 167
1
口口口口 |----|
口口口口 |----|
口口口口 |----|
口口口口 |----|
2
口口口口 |----|
口口口口 |----|
口口口口 |----|
口口口口 |----|
3
口③③口 |①---|
口②②口 |②---|
口①①口 |③---|
口口口口 |----|
4
口口口口 |①-②-|
①口口② |③-④-|
口③④口 |⑤-⑥-|
⑤⑦口⑥ |⑦---|
5
①口口② |①-②-|
口③④口 |③-④-|
⑤口口⑥ |⑤-⑥-|
口⑦口口 |⑦---|
6
④口口⑤ |①-②-|
口③⑥口 |③-④-|
口⑦②口 |⑤-⑥-|
⑧口口① |⑦-⑧-|
7
口②①口 |①-②-|
④口口③ |③-④-|
⑥口口⑤ |⑤-⑥-|
口口⑦口 |⑦---|
8
口④⑧口 |①-②-|
口③⑦口 |③-④-|
口②⑥口 |⑤-⑥-|
口①⑤口 |⑦-⑧-|
9
口口口口 |①--②|
①②口口 |--③-|
①②④④ |④---|
⑤口③③ |⑤---|
10
口口口口 |①-②-|
①口口② |③-④-|
口③④口 |⑤-⑥-|
⑤⑦口⑥ |⑦---|
11
②口口② |①---|
口①①口 |----|
②口口② |---②|
口口口口 |----|
12
口⑦⑧口 |①-②-|
口⑤⑥口 |③-④-|
口③④口 |⑤-⑥-|
口①②口 |⑦-⑧-|
13
口口口口 |①-②-|
⑤口口口 |③-④-|
③口口④ |⑤---|
①口口② |----|
14
口②①口 |①-②-|
口④③口 |③-④-|
口⑥⑤口 |⑤-⑥-|
口⑧⑦口 |⑦-⑧-|
15
②口口① |①-②-|
④口口③ |③-④-|
口口口⑤ |⑤---|
口口口口 |----|
16
口口口口 |①---|
⑤①口口 |②-③-|
④口②口 |--④-|
③口口口 |--⑤-|
17
①口口② |--①-|
口口口口 |--②-|
口③口口 |--③-|
口口口口 |----|
18
口口口口 |①---|
口①①口 |----|
口口口口 |----|
口口口口 |----|
19
①⑤⑤① |①---|
口④④口 |②---|
口③③口 |③-④-|
②口口② |⑤---|
20
口口口口 |①-②-|
①口口② |③-④-|
口③④口 |⑤-⑥-|
⑤⑦口⑥ |⑦---|
21
①口口② |①-②-|
口③④口 |③-④-|
⑤口口⑥ |⑤-⑥-|
口⑦口口 |⑦---|
22
④口口⑤ |①-②-|
口③⑥口 |③-④-|
口⑦②口 |⑤-⑥-|
⑧口口① |⑦-⑧-|
23
⑥②①⑥ |①-②-|
④⑤⑤③ |③-④-|
口口口口 |⑤---|
口口口口 |⑥---|
24
口④⑧口 |①-②-|
口③⑦口 |③-④-|
口②⑥口 |⑤-⑥-|
口①⑤口 |⑦-⑧-|
25
口口口口 |①--②|
①②口口 |--③-|
①②④④ |④---|
⑤口③③ |⑤---|
26
口口口口 |①-②-|
①口口② |③-④-|
口③④口 |⑤-⑥-|
⑤⑦口⑥ |⑦---|
27
②口口② |①---|
口①①口 |----|
②口口② |---②|
口口口口 |----|
28
口口口口 |----|
口口口口 |----|
口口口口 |----|
口口口口 |----|
29
口口口口 |----|
口口口口 |----|
口口口口 |----|
口口口口 |----|
30
口④③② |①---|
口①①口 |②---|
口口口口 |③---|
口口口口 |④---|
31
口口口口 |①---|
口①①口 |②---|
②③④口 |③---|
口口口口 |④---|
32
口口口② |①---|
口①①③ |②---|
口口口④ |③---|
口口口口 |④---|
33
口口口口 |①---|
④①①口 |②---|
③口口口 |③---|
②口口口 |④---|
34
口口口口 |①---|
口①①口 |②---|
口口口口 |③---|
口④③② |④---|
35
②③④口 |①---|
口①①口 |②---|
口口口口 |③---|
口口口口 |④---|
36
口④③② |①---|
口①①口 |②---|
口口口口 |③---|
口口口口 |④---|
37
口④④口 |①---|
口③③口 |②---|
口②②口 |③---|
口①①口 |④---|
38
④口口口 |①---|
口③口口 |②---|
口口②口 |③---|
口口口① |④---|
39
口口口② |①---|
口口口口 |②---|
口①①口
口口口口

口口口口
口口③口
口④口口 |③---|
口口口口 |④---|
40
口①①口 |①---|
口口口④ |②---|
口口口③ |③---|
口口口② |④---|
41
口口口口 |①---|
④口口口 |②---|
③①①口 |③---|
②口口口 |④---|
42
口④③② |①---|
口口口口 |②---|
口①①口 |③---|
口口口口 |④---|
43
口口口口 |--①-|
②口口② |----|
口①①口 |②---|
②口口② |----|
44
①②③④ |①-②-|
⑤⑥⑦⑧ |③-④-|
口口口口 |⑤-⑥-|
口口口口 |⑦-⑧-|
45
口口口口 |①-②-|
口口口口 |③-④-|
①②③④ |⑤-⑥-|
⑤⑥⑦⑧ |⑦-⑧-|
46
口①②口 |①-②-|
口③④口 |③-④-|
口⑤⑥口 |⑤-⑥-|
口⑦⑧口 |⑦-⑧-|
47
①口口② |①-②-|
③口口④ |③-④-|
⑤口口⑥ |⑤-⑥-|
⑦口口⑧ |⑦-⑧-|
48
口④⑧口 |①-②-|
口③⑦口 |③-④-|
口②⑥口 |⑤-⑥-|
口①⑤口 |⑦-⑧-|
49
①口口口 |①---|
口③③口 |----|
口③③口 |②---|
口口口② |③---|
50
①口口② |①-②-|
③口口④ |③-④-|
⑤口口⑥ |⑤-⑥-|
⑦口口⑧ |⑦-⑧-|
51
口①②口 |①-②-|
口③④口 |③-④-|
口⑤⑥口 |⑤-⑥-|
口⑦⑧口 |⑦-⑧-|
52
④口口⑧ |①-②-|
③口口⑦ |③-④-|
②口口⑥ |⑤-⑥-|
①口口⑤ |⑦-⑧-|
53
口口口口 |①---|
口②②口 |----|
口①①口 |②---|
口口口口 |----|
54
④口口④ |①---|
②口口② |②---|
①口口① |③---|
③口口③ |④---|
55
口口口口 |①---|
口②②口 |----|
口①①口 |②---|
口口口口 |----|
56
口口口口 |①---|
③口口③ |②---|
②口口② |③---|
①口口① |----|
57
口①口口 |①---|
口口②口 |----|
口口口口 |②---|
口口口口 |----|
58
口口口口 |①---|
口口口口 |----|
口①口口 |②---|
口口②口 |----|
59
①口口口 |①---|
口口口② |----|
口口口口 |②---|
口口口口 |----|
60
口口口口 |①---|
口口口口 |----|
①口口口 |②---|
口口口② |----|
61
口口④口 |①---|
口③口口 |②---|
口口②口 |③---|
口①口口 |④---|
62
口④口口 |①---|
口口③口 |②---|
口②口口 |③---|
口口①口 |④---|
63
①口口① |①---|
口口口口 |----|
口口口口 |----|
口口口口 |----|
64
口口口口 |①---|
口口口口 |----|
口口口口 |----|
①口口① |----|
65
口①①口 |①---|
口口口口 |----|
口口口口 |②---|
口②②口 |----|
66
②口口② |①---|
口口口口 |----|
口口口口 |②---|
①口口① |----|
67
口口口口 |①-②-|
①口口② |③-④-|
口③④口 |⑤-⑥-|
⑤⑦口⑥ |⑦---|
68
①口口② |①-②-|
口③④口 |③-④-|
⑤口口⑥ |⑤-⑥-|
口⑦口口 |⑦---|
69
④口口⑤ |①-②-|
口③⑥口 |③-④-|
口⑦②口 |⑤-⑥-|
⑧口口① |⑦-⑧-|
70
口②①口 |①-②-|
④口口③ |③-④-|
⑥口口⑤ |⑤-⑥-|
口口⑦口 |⑦---|
71
口④⑧口 |①-②-|
口③⑦口 |③-④-|
口②⑥口 |⑤-⑥-|
口①⑤口 |⑦-⑧-|
72
口口口口 |①--②|
①②口口 |--③-|
①②④④ |④---|
⑤口③③ |⑤---|
73
口口口口 |①-②-|
①口口② |③-④-|
口③④口 |⑤-⑥-|
⑤⑦口⑥ |⑦---|
74
口口①口 |①---|
口口口口 |----|
口口口口 |----|
口口口口 |----|
75
口口口口 |①-②-|
①口口② |③-④-|
口③④口 |⑤-⑥-|
⑤⑦⑧⑥ |⑦-⑧-|
76
①①②② |①---|
口口口口 |----|
口口口口 |②---|
口口口口 |----|
77
口口口口 |①---|
口口口口 |----|
口②口口 |②---|
口①口口 |----|
78
口②口口 |①---|
口①口口 |----|
口口口口 |②---|
口口口口 |----|
79
口口口口 |①-②-|
①口口② |③-④-|
口③④口 |⑤-⑥-|
⑤⑦⑧⑥ |⑦-⑧-|
80
②口口② |①---|
口①①口 |----|
口口口口 |---②|
口口口口 |----|
81
口口口口 |----|
口口口口 |----|
口口口口 |----|
口口口口 |----|
82
口口口口 |----|
口口口口 |----|
口口口口 |----|
口口口口 |----|
83
口口口口 |①---|
口口口口 |----|
口①口口 |----|
口口口口 |----|

accuracy: 100%
最終更新:2022年05月04日 09:23