アットウィキロゴ
Rampage☆Rag
かめりあ

ADVANCED

Level: 8
BPM: 334
Notes: 724

BPM: 167
1
口口口口 |----|
口口口口 |----|
口口口口 |----|
口口口口 |----|
2
⑨口口口 |①-②-|
③④⑧⑦ |③④-⑤|
口⑥②口 |-⑥-⑦|
①口口⑤ |⑧-⑨-|
3
口口⑦口 |①---|
口⑥⑤口 |②---|
②④③② |③④⑤⑥|
口①①口 |⑦---|
4
①口口⑧ |①-②-|
口口⑦⑥ |③④-⑤|
③④口口 |-⑥⑦-|
⑤口口② |⑧---|
5
①口口④ |①--②|
⑤口④口 |-③--|
口⑤口⑥ |④-⑤-|
③口⑥② |⑥---|
6
①口②口 |①-②-|
⑤口口口 |③④-⑤|
⑨口⑦⑥ |-⑥⑦-|
③④口⑧ |⑧-⑨-|
7
口②③① |①-②③|
⑩④⑤⑩ |④⑤⑥⑦|
口⑥⑦口 |⑧⑨-⑩|
口⑧⑨口 |----|
8
⑨口口① |①-②-|
口口⑦⑥ |③④-⑤|
③④口⑧ |-⑥⑦-|
⑤口口② |⑧-⑨-|
9
口②①⑤ |①--②|
④口口③ |--③-|
口②①口 |④---|
④口口③ |⑤---|
10
①口口⑧ |①-②-|
口口⑦⑥ |③④-⑤|
③④口口 |-⑥⑦-|
⑤口口② |⑧---|
11
⑫⑫口口 |①②③④|
⑨⑩⑪口 |⑤⑥⑦⑧|
①②③④ |⑨⑩⑪⑫|
⑤⑥⑦⑧ |----|
12
⑤口①④ |--①-|
口⑤④① |-②--|
②③口口 |③--④|
③②口口 |--⑤-|
13
⑤①口④ |-①--|
①口口口 |②--③|
口口②口 |--④-|
③③口② |--⑤-|
14
④①⑤口 |--①-|
①④口⑤ |-②--|
口口②③ |③--④|
口口③② |--⑤-|
15
口口口① |-①--|
口口①口 |②--③|
②口③③
口②口口

④口口⑤
口口口口
口口口口 |--④-|
口口口口 |--⑤-|
16
④口口口 |①---|
口口③口 |②-③-|
口②口口 |--④-|
口①①⑤ |--⑤-|
17
口口口③ |--①-|
口口口② |--②-|
口口口① |--③-|
口口口口 |----|
18
⑬口口口 |①②③④|
⑨⑩⑪⑫ |⑤⑥⑦⑧|
⑤⑥⑦⑧ |⑨⑩⑪⑫|
①②③④ |⑬---|
19
口口①① |①---|
⑤⑤口口 |②---|
口口④④ |③-④-|
③③②② |⑤---|
20
①口口⑧ |①-②-|
口口⑦⑥ |③④-⑤|
③④口口 |-⑥⑦-|
⑤口口② |⑧---|
21
①口口④ |①--②|
⑤口④口 |-③--|
口⑤口⑥ |④-⑤-|
③口⑥② |⑥---|
22
①口②口 |①-②-|
⑤口口口 |③④-⑤|
⑨口⑦⑥ |-⑥⑦-|
③④口⑧ |⑧-⑨-|
23
口②③① |①-②③|
⑩④⑤⑩ |④⑤⑥⑦|
口⑥⑦口 |⑧⑨-⑩|
口⑧⑨口 |----|
24
⑨口口① |①-②-|
口口⑦⑥ |③④-⑤|
③④口⑧ |-⑥⑦-|
⑤口口② |⑧-⑨-|
25
口②①⑤ |①--②|
④口口③ |--③-|
口②①口 |④---|
④口口③ |⑤---|
26
①口口⑧ |①-②-|
口口⑦⑥ |③④-⑤|
③④口口 |-⑥⑦-|
⑤口口② |⑧---|
27
⑫⑫口口 |①②③④|
⑨⑩⑪口 |⑤⑥⑦⑧|
①②③④ |⑨⑩⑪⑫|
⑤⑥⑦⑧ |----|
28
口口口口 |----|
口口口口 |----|
口口口口 |----|
口口口口 |----|
29
口口口口 |----|
口口口口 |----|
口口口口 |----|
口口口口 |----|
30
口口⑥⑤ |①-②③|
口①①口 |④-⑤⑥|
口口口口
②③④口

口口口口
口口口口
⑦⑧⑨⑩ |-⑦⑧⑨|
⑪口口口 |⑩-⑪-|
31
⑥⑤④③ |①-②-|
口①①口 |③④⑤⑥|
口口口口
口口口②

口口口口
⑩⑪口口
口⑨⑧⑦ |-⑦⑧⑨|
口口口口 |-⑩⑪-|
32
口口④③ |①-②-|
⑨⑩⑪⑫ |③④-⑤|
⑤⑥⑦⑧ |⑥⑦⑧-|
口①①② |⑨⑩⑪⑫|
33
②口口③ |①-②-|
口⑦⑦口 |③-④-|
口⑥⑥口 |⑤-⑥-|
④①①⑤ |⑦---|
34
①口口① |①-②-|
⑨⑧⑦⑥ |-③-④|
④口⑤③ |--⑤-|
口②口口 |⑥⑦⑧⑨|
35
④口口口 |①-②-|
口口口口 |③-④-|
口口口③
②口①①

口⑥口⑤
口口口口
口口⑦口 |⑤-⑥-|
口口⑦口 |--⑦-|
36
⑨⑧⑦⑥ |①-②③|
⑤④③② |④⑤-⑥|
口①口口 |⑦⑧⑨-|
⑪①口⑩ |⑩⑪--|
37
④③③④ |①---|
口②②口 |②---|
口①①口 |③---|
口口口口 |④---|
38
⑩口口口 |--①②|
⑦⑧⑨口 |③④⑤⑥|
④⑤⑥口 |⑦⑧⑨⑩|
①②③口 |----|
39
口①①口 |①-②③|
口口口口 |④⑤⑥⑦|
口⑦⑥⑤
口④③②

口⑫口⑪
口⑩⑨⑧
口口口口 |⑧⑨⑩⑪|
口口口口 |--⑫-|
40
口口①口 |①-②③|
口口口口 |④⑤⑥⑦|
④⑤⑥⑦
口②③口

⑫⑬⑭⑮
⑧⑨⑩⑪
口口口口 |⑧⑨⑩⑪|
口口口口 |⑫⑬⑭⑮|
41
口口口口 |①---|
口口口口 |②---|
口口口口 |③---|
①③②④ |④---|
42
①口口口 |--①-|
口⑤④口 |--②-|
口③⑥② |③-④-|
口口口口 |⑤-⑥-|
43
④①②口 |--①-|
①口口② |-②--|
口口口口 |③---|
口③③口 |④---|
44
⑧口口⑤ |①-②-|
口④①口 |③-④-|
口②③口 |⑤-⑥-|
⑥口口⑦ |⑦-⑧-|
45
口④①口 |①-②-|
⑧口口⑤ |③-④-|
⑥口口⑦ |⑤-⑥-|
口②③口 |⑦-⑧-|
46
口口④① |①-②③|
口⑤口口 |-④-⑤|
口口口口
②③口口

⑧⑨口口
口口口口
口口⑦⑥ |-⑥⑦-|
⑩口口口 |⑧⑨-⑩|
47
口口口④ |①-②③|
⑤口③② |-④-⑤|
口口口口
口①口口

口口口口
口口口⑩
口口⑦⑥ |-⑥⑦-|
⑧⑨口⑩ |⑧⑨-⑩|
48
③口⑤④ |--①-|
⑦⑧②口 |②-③-|
口①口口 |④⑤-⑥|
口口口⑥ |-⑦⑧-|
49
口⑤④口 |①-②-|
口口⑥③ |③-④-|
口⑥⑥② |⑤---|
口①①口 |⑥---|
50
口口④① |①-②③|
口⑤口口 |-④-⑤|
口口口口
②③口口

⑧⑨口口
口口口口
口口⑦⑥ |-⑥⑦-|
⑩口口口 |⑧⑨-⑩|
51
口口口④ |①-②③|
⑤口③② |-④-⑤|
口口口口
口①口口

口口口口
口口口⑩
口口⑦⑥ |-⑥⑦-|
⑧⑨口⑩ |⑧⑨-⑩|
52
③口⑥② |--①-|
⑧口口口 |②-③-|
口①⑤④ |④⑤-⑥|
口口口⑦ |-⑦-⑧|
53
口口口口 |①---|
口①②口 |--②③|
口③口口
口口口口

口口口口
口⑤口口
口口⑥口 |④---|
口口④口 |--⑤⑥|
54
⑤口口口 |①-②-|
⑥口口④ |③-④-|
⑦口口③ |⑤-⑥-|
⑧①口② |⑦-⑧-|
55
口口口② |①---|
③①①口 |--②③|
口口口口
口口口口

口口口口
口⑤口口
口口⑥④ |④---|
口口口口 |--⑤⑥|
56
⑤口口口 |①-②-|
口口口④ |③-④-|
③口口口 |⑤---|
口①口② |----|
57
③口口② |①-②-|
口⑤口口 |-③--|
口口口⑥ |④--⑤|
①口口④ |--⑥-|
58
口口③① |-①--|
②口口口 |②--③|
口④⑤口 |-④⑤⑥|
⑧⑥⑦⑨ |⑦⑧⑨-|
59
①口④口 |--①-|
口口口口 |-②--|
⑤口口② |③--④|
口③口口 |--⑤-|
60
③口口口 |-①--|
口⑤④口 |②--③|
口⑦⑥① |-④⑤⑥|
②⑨⑧口 |⑦⑧⑨-|
61
④口①① |①---|
口口口口 |②-③-|
口口口③ |--④-|
②⑤口⑤ |--⑤-|
62
③口③口 |--①-|
口②口② |--②-|
①口①口 |--③-|
口口口口 |----|
63
口口口⑬ |①②③④|
⑫⑪⑩⑨ |⑤⑥⑦⑧|
⑧⑦⑥⑤ |⑨⑩⑪⑫|
④③②① |⑬---|
64
⑬口口口 |①②③④|
⑨⑩⑪⑫ |⑤⑥⑦⑧|
⑤⑥⑦⑧ |⑨⑩⑪⑫|
①②③④ |⑬---|
65
⑯⑮⑭⑬ |①②③④|
⑫⑪⑩⑨ |⑤⑥⑦⑧|
⑧⑦⑥⑤ |⑨⑩⑪⑫|
④③②① |⑬⑭⑮⑯|
66
口口口口 |①---|
口口②口 |--②③|
口③④口 |④---|
口①①口 |----|
67
①口口⑩ |①-②-|
⑦口⑨⑧ |③④⑤⑥|
③④⑤口 |⑦⑧⑨-|
⑥口⑪② |⑩-⑪-|
68
①口口⑦ |①-②③|
⑧⑥⑦⑩ |④⑤⑥-|
口⑧④⑨ |⑦-⑧-|
⑤②⑨③ |⑨-⑩-|
69
①口②口 |①-②-|
⑥口⑤口 |③④⑤⑥|
⑪⑦⑨⑧ |⑦⑧⑨-|
③④口⑩ |⑩-⑪-|
70
口②③① |①-②③|
⑩④⑤⑩ |④⑤⑥⑦|
口⑥⑦口 |⑧⑨-⑩|
口⑧⑨口 |----|
71
⑪口口① |①-②-|
口⑦⑨⑧ |③④⑤⑥|
③④口⑩ |⑦⑧⑨-|
⑥口⑤② |⑩-⑪-|
72
口②①⑤ |①--②|
④口口③ |--③-|
口②①口 |④---|
④口口③ |⑤---|
73
①口口⑩ |①-②-|
⑦口⑨⑧ |③④⑤⑥|
③④⑤口 |⑦⑧⑨-|
⑥口⑪② |⑩-⑪-|
74
口②⑥口 |①-②-|
⑦⑧口口 |③④-⑤|
①口④③ |-⑥-⑦|
⑤口⑨口 |⑧-⑨-|
75
①口口⑩ |①-②-|
⑦口⑨⑧ |③④⑤⑥|
③④⑤口 |⑦⑧⑨-|
⑥口⑪② |⑩-⑪-|
76
口①①口 |①-②③|
口口口口 |-④--|
口口④口
③口口②

口口⑧口
口⑤⑤口
⑦口口⑥ |⑤-⑥⑦|
口口口口 |-⑧--|
77
口口口⑨ |①-②-|
①⑥⑤④ |③-④⑤|
⑧③口口 |⑥-⑦-|
口口②⑦ |⑧-⑨-|
78
口口④④ |①---|
口③口④ |②---|
口口②口 |③---|
口①口口 |④---|
79
①口口⑩ |①-②-|
⑦口⑨⑧ |③④⑤⑥|
③④⑤口 |⑦⑧⑨-|
⑥口⑪② |⑩-⑪-|
80
⑦口⑧⑫ |①②③④|
⑪⑤⑫⑥ |⑤⑥⑦⑧|
⑨③⑩④ |⑨⑩⑪⑫|
口①口② |----|
81
口口口口 |----|
口口口口 |----|
口口口口 |----|
口口口口 |----|
82
口口口口 |----|
口口口口 |----|
口口口口 |----|
口口口口 |----|
83
口口口口 |①---|
口口口口 |----|
口①口口 |----|
口口口口 |----|

accuracy: 100%
最終更新:2022年05月04日 10:15