アットウィキロゴ
Rampage☆Rag
かめりあ

EXTREME

Level: 10.5
BPM: 334
Notes: 970

BPM: 167
1
口口口口 |----|
口口口口 |----|
口口口口 |----|
口口口口 |----|
2
口口口① |①-②-|
口③⑦口 |③④-⑤|
⑥⑧④口 |-⑥-⑦|
⑤口②⑨ |⑧-⑨-|
3
③③①① |①-②-|
③⑤⑤① |③-④-|
⑧口⑤⑨ |⑤⑥⑦⑧|
⑥④②⑦ |⑨---|
4
①口口① |①-②-|
口③⑤③ |③④⑤⑥|
口口④口
⑥②②口

⑪⑪⑩口
⑧口口口
⑩⑨口⑨ |⑦⑧⑨-|
口口口⑦ |⑩-⑪-|
5
口口口⑤ |①-②③|
口①口① |④⑤⑥-|
口口②⑥
④口③口

口口⑩口
⑦口⑪口
口⑧⑫口 |⑦-⑧-|
口⑦⑬⑨ |⑨---⑩⑪⑫⑬|
6
①②⑦⑥ |①-②-|
口口口口 |③④-⑤|
③口口⑤ |-⑥⑦-|
⑨④口⑧ |⑧-⑨-|
7
⑫⑧⑨口 |①-②③|
⑫⑥⑦① |④⑤⑥⑦|
口④⑤⑬ |⑧⑨⑩⑪|
⑩②③⑪ |⑫-⑬-|
8
口⑤口① |①-②-|
口②⑨③ |③④-⑤|
⑥①④口 |-⑥⑦-|
口⑦口⑧ |⑧-⑨-|
9
①③④② |①--②|
⑤④口口 |--③-|
⑤⑤口③ |④---|
②口①⑤ |⑤---|
10
①口口① |①-②-|
口③⑤③ |③④⑤⑥|
口口④口
⑥②②口

⑪⑪⑩口
⑧口口口
⑩⑨口⑨ |⑦⑧⑨-|
口口口⑦ |⑩-⑪-|
11
⑫⑫口⑤ |①②③④|
⑫②⑥⑪ |⑤⑥⑦⑧|
⑩⑦③口 |⑨⑩⑪⑫|
⑧④①⑨ |----|
12
口口③② |①-②③|
口①④口 |④⑤⑥⑦|
⑤⑥口口
口⑦口口

⑪⑫⑮⑭
口⑬口口
口口⑨⑧ |⑧⑨⑩⑪|
口口⑩口 |⑫⑬⑭⑮|
13
⑧口口口 |①②③④|
口口①口 |⑤⑥⑦⑧|
②③⑥⑤
口④⑦口

口⑫⑬⑪
⑰⑯⑮⑭
口口口口 |⑨⑩⑪⑫|
⑩口口⑨ |⑬---⑭⑮⑯⑰|
14
口口口口 |--①②|
口口口口 |③④⑤⑥|
④⑤②①
⑥口口③

⑩⑪⑧⑦
⑫口口⑨
口口⑭⑬ |⑦⑧⑨⑩|
口口口口 |⑪⑫⑬⑭|
15
⑧口⑥⑤ |①②③④|
口口口⑦ |⑤⑥⑦⑧|
②③口口
④口口①

口口口口
口⑫⑪口
⑭⑯⑮⑬ |⑨⑩⑪⑫|
口⑩⑨口 |⑬⑭⑮⑯|
16
④①④① |①-②-|
口口口③ |③-④-|
口口口口
②口③口

口口口⑦
⑧口⑧口
⑥口⑥口 |⑤-⑥-|
口口口⑤ |⑦-⑧-|
17
②④②⑤ |①-②-|
⑧④口⑦ |③-④-|
⑥⑥口① |⑤-⑥-|
口口③口 |⑦-⑧-|
18
口口口口 |①②③④|
口口口口 |⑤⑥⑦⑧|
⑧⑦④③
⑥⑤②①

口⑫⑪口
口⑩⑨⑬
口口口口 |⑨⑩⑪⑫|
口口口⑬ |⑬---|
19
口口口口 |①---|
②④②口 |②-③④|
③②①①
②①①口

口⑥⑤口
口口口口
口口口⑧ |⑤-⑥-|
口⑦口⑦ |⑦-⑧-|
20
①⑩⑨① |①-②-|
⑦③口③ |③④-⑤|
⑨口④⑧ |⑥⑦⑧-|
⑤口②⑥ |⑨-⑩-|
21
口口口④ |①--②|
口①口① |③④⑤-|
口口口⑤
③口②口

口口⑨口
⑥口口⑨
口⑦⑦口 |⑥-⑦-|
口⑥口⑧ |⑧-⑨-|
22
①②⑦⑥ |①-②-|
口口口口 |③④-⑤|
③口口⑤ |-⑥⑦-|
⑨④口⑧ |⑧-⑨-|
23
口⑧⑨口 |①-②③|
⑩⑥⑦① |④⑤⑥⑦|
⑧④⑤⑨ |⑧--⑨|
口②③⑩ |--⑩-|
24
口⑤口① |①-②-|
口②⑨③ |③④-⑤|
⑥①④口 |-⑥⑦-|
口⑦口⑧ |⑧-⑨-|
25
①③④② |①--②|
⑤④口口 |--③-|
⑤⑤口③ |④---|
②口①⑤ |⑤---|
26
①口口① |①-②-|
口③⑤③ |③④⑤⑥|
口口④口
⑥②②口

⑪⑪⑩口
⑧口口口
⑩⑨口⑨ |⑦⑧⑨-|
口口口⑦ |⑩-⑪-|
27
⑫⑫口⑤ |①②③④|
⑫②⑥⑪ |⑤⑥⑦⑧|
⑩⑦③口 |⑨⑩⑪⑫|
⑧④①⑨ |----|
28
口口口口 |----|
口口口口 |----|
口口口口 |----|
口口口口 |----|
29
口口口口 |----|
口口口口 |----|
口口口口 |----|
口口口口 |----|
30
⑥口口口 |①-②③|
⑤①①口 |④-⑤⑥|
口①①④
口口②③

口⑩⑧⑦
口口口⑨
口口口口 |-⑦⑧⑨|
口口⑪口 |⑩-⑪-|
31
③口口口 |①-②-|
④①①口 |③④⑤⑥|
⑤①①②
⑥口口口

口口⑨⑦
口⑪⑪⑧
口⑩口口 |-⑦⑧⑨|
口口口口 |-⑩⑪-|
32
④⑫⑥⑧ |①-②-|
⑪口口⑦ |③④-⑤|
③⑩⑤② |⑥⑦⑧-|
⑨①①口 |⑨⑩⑪⑫|
33
⑧口⑦口 |①②③④|
口①①口 |⑤⑥⑦⑧|
⑥口口⑤
口④③②

口口口口
口⑪⑪⑨
口⑩⑩口 |⑨-⑩-|
口口口口 |-⑪--|
34
口口口① |①-②-|
口口口口 |-③-④|
口口④②
①③口口

⑦⑤⑥⑪
⑧口口⑫
⑨口口⑬ |-⑤⑥-|
⑩口口⑭ |⑦⑧⑨⑩⑪⑫⑬⑭|
35
口⑥⑦口 |①-②③|
口①①口 |④⑤⑥⑦|
口④⑤口
口②③口

⑧口口⑪
⑨⑫⑫⑪
⑩口口口 |⑧⑨⑩⑪|
口口口口 |--⑫-|
36
⑫④⑤口 |①-②③|
⑧口⑪⑨ |④⑤-⑥|
⑥⑩③⑦ |⑦⑧⑨-|
①②口① |⑩⑪-⑫|
37
口⑦⑥② |①-②-|
口③⑦⑤ |③-④-|
⑤口③口 |⑤-⑥-|
④①①口 |⑦---|
38
①⑪口⑧ |①-②③|
①口⑩⑨ |④⑤⑥⑦|
口⑤口② |⑧⑨⑩⑪|
⑦⑥④③ |----|
39
①口口口 |①-②③|
①口口口 |④⑤⑥⑦|
⑥⑤③②
⑦口④口

口⑫⑨⑧
⑫口⑩⑪
口口口口 |⑧⑨⑩⑪|
口口口⑪ |--⑫-|
40
①口口口 |①-②③|
口①口口 |④⑤⑥⑦|
⑦⑥⑤④
口③②口

⑮⑩⑬⑧
⑪⑭⑨⑫
口口口口 |⑧⑨⑩⑪|
口口口口 |⑫⑬⑭⑮|
41
⑮⑬⑪⑨ |①②③④|
⑯⑭⑫⑩ |⑤⑥⑦⑧|
⑦⑤③① |⑨⑩⑪⑫|
⑧⑥④② |⑬⑭⑮⑯|
42
⑦口口⑥ |①-②-|
口⑤口口 |--③-|
②口④④ |④-⑤-|
口③①① |⑥-⑦-|
43
④①②口 |--①-|
③口口③ |-②--|
③口口③ |③---|
口②①口 |④---|
44
口口④⑧ |①-②-|
口口③⑦ |③-④-|
口口②⑥ |⑤-⑥-|
口口①⑤ |⑦-⑧-|
45
⑧④口口 |①-②-|
⑦③口口 |③-④-|
⑥②口口 |⑤-⑥-|
⑤①口口 |⑦-⑧-|
46
口④口① |①-②③|
口口口⑤ |-④-⑤|
口口③②
口口口口

口口口⑧
⑥口⑨口
口⑦口口 |-⑥⑦-|
⑩口口口 |⑧⑨-⑩|
47
④口口口 |①-②③|
口口口口 |-④-⑤|
口口③口
口①⑤②

口口口⑧
口⑦⑨口
⑥口口口 |-⑥⑦-|
⑩⑩口口 |⑧⑨-⑩|
48
②②口⑥ |--①-|
口口口① |②-③-|
口③⑤④ |④⑤-⑥|
⑦⑧③① |-⑦⑧-|
49
④⑤①口 |①-②-|
②③①① |③-④-|
⑥口口口 |⑤---|
⑥⑥口口 |⑥---|
50
口④口① |①-②③|
口口口⑤ |-④-⑤|
口口③②
口口口口

口口口⑧
⑥口⑨口
口⑦口口 |-⑥⑦-|
⑩口口口 |⑧⑨-⑩|
51
④口口口 |①-②③|
口口口口 |-④-⑤|
口口③口
口①⑤②

口口口⑧
口⑦⑨口
⑥口口口 |-⑥⑦-|
⑩⑩口口 |⑧⑨-⑩|
52
口②③口 |--①-|
②口口③ |②-③-|
口口①口
口口口①

⑤口口⑥
口⑤⑥口
口口⑧④ |④⑤-⑥|
⑦⑦④⑧ |-⑦-⑧|
53
②①口口 |①---|
①②③口 |--②③|
口口口③
口口口口

口口⑤口
⑥口口⑤
④④口口 |④---|
⑥口口口 |--⑤⑥|
54
②②口③ |①-②-|
口口口口 |③-④-|
口口①③
口④④①

口口⑥口
口⑤⑤⑥
⑦口⑧口 |⑤-⑥-|
⑦口口⑧ |⑦-⑧-|
55
①①口② |①---|
①③口口 |--②③|
口③口②
口口口口

⑤⑤口口
口口⑥④
口口口口 |④---|
口口④⑥ |--⑤⑥|
56
口口④② |①-②-|
⑤口口④ |③-④-|
⑤③口② |⑤---|
①①③口 |----|
57
②口口③ |①-②-|
口口口⑥ |-③--|
口口⑤口 |④--⑤|
④口口① |--⑥-|
58
①口口③ |-①--|
口口口口 |②--③|
口口口口
口口口②

⑧⑥④口
⑨⑦⑤口
口口口口 |-④⑤⑥|
口口口口 |⑦⑧⑨-|
59
口口口口 |--①-|
口口口① |-②--|
②口口⑤ |③--④|
④口③口 |--⑤-|
60
③④⑥⑧ |-①--|
①⑤⑦⑨ |②--③|
口口口口 |-④⑤⑥|
口口口② |⑦⑧⑨-|
61
口口口⑤ |①---|
④口⑤口 |②-③-|
口④②③ |--④-|
①①③② |--⑤-|
62
①②②口 |--①-|
③①口③ |--②-|
口口口口 |--③-|
口口口口 |----|
63
口⑫⑨⑬ |①②③④|
口⑪⑩口 |⑤⑥⑦⑧|
⑧⑤④① |⑨⑩⑪⑫|
⑦⑥③② |⑬---|
64
⑬⑨⑫口 |①②③④|
口⑩⑪口 |⑤⑥⑦⑧|
⑤⑧①④ |⑨⑩⑪⑫|
⑥⑦②③ |⑬---|
65
⑯⑬⑫⑨ |①②③④|
⑮⑭⑪⑩ |⑤⑥⑦⑧|
⑧⑤④① |⑨⑩⑪⑫|
⑦⑥③② |⑬⑭⑮⑯|
66
口口⑥口 |①-②-|
⑦口口口 |③-④⑤|
⑤①①⑧ |⑥-⑦-|
③口④② |⑧---|
67
口②口⑦ |①②③④|
口口①口 |⑤⑥⑦⑧|
口④⑥口
⑧口③⑤

⑩⑮⑬口
⑭⑯口⑨
⑫⑰口⑪ |⑨⑩⑪⑫|
口⑱口口 |⑬-⑭-⑮⑯⑰⑱|
68
口口口⑥ |①②③④|
口口②口 |⑤⑥⑦⑧|
⑧口③⑦
⑤口④①

口口⑬口
⑩口⑭⑨
口⑪⑮口 |⑨⑩-⑪|
口口⑯⑫ |⑫---⑬⑭⑮⑯|
69
①③口② |①②③④|
⑦口口口 |⑤⑥⑦⑧|
⑤⑧口④
口⑥口口

⑬口⑭⑮
口⑩⑫⑯
口口口口 |⑨⑩⑪⑫|
⑪口口⑨ |⑬⑭⑮⑯|
70
口口口口 |①②③④|
口⑦⑧口 |⑤⑥⑦⑧|
①⑤⑥②
口③④口

⑬⑨⑩口
口口口口
⑭口口⑮ |⑨⑩⑪⑫|
⑪⑯口⑫ |⑬⑭⑮⑯|
71
口⑧⑦① |①②③④|
口③口⑤ |⑤⑥⑦⑧|
口④⑥口
口口②口

⑭口口口
⑨口⑮口
⑩⑯口⑪ |⑨⑩⑪⑫|
口⑫口⑬ |⑬⑭⑮⑯|
72
口口口② |①--②|
口口口① |--③-|
③口②③
②口①口

口口④口
⑤④口⑤
口口口口 |④---|
口⑤口口 |⑤---|
73
口②口⑦ |①②③④|
口口①口 |⑤⑥⑦⑧|
口④⑥口
⑧口③⑤

⑩口⑬口
⑭⑯口⑨
⑫口口⑪ |⑨⑩⑪⑫|
口口⑮口 |⑬⑭⑮⑯|
74
口口口⑤ |①-②-|
⑨口①④ |③④-⑤|
⑦口③⑥ |-⑥-⑦|
口⑧口② |⑧-⑨-|
75
口②口⑦ |①②③④|
口口①口 |⑤⑥⑦⑧|
口④⑥口
⑧口③⑤

⑩口⑬口
⑭⑯口⑨
⑫口口⑪ |⑨⑩⑪⑫|
口口⑮口 |⑬⑭⑮⑯|
76
口④口④ |①-②③|
口口①口 |-④-⑤|
口②③口
⑤②口①

⑨口⑥口
⑦口⑨⑥
⑦口口⑧ |⑥-⑦⑧|
口口口口 |-⑨--|
77
口⑥⑤④ |①-②-|
口①口⑨ |③-④⑤|
口③⑧口 |⑥-⑦-|
口②口⑦ |⑧-⑨-|
78
口口④口 |①---|
口③口口 |②---|
口②口口 |③---|
①口口口 |④---|
79
口②口⑦ |①②③④|
口口①口 |⑤⑥⑦⑧|
口④⑥口
⑧口③⑤

⑩口⑬口
⑭⑯口⑨
⑫口口⑪ |⑨⑩⑪⑫|
口口⑮口 |⑬⑭⑮⑯|
80
⑩⑥⑫⑪ |①②③④|
口⑫⑤⑨ |⑤⑥⑦⑧|
⑧④③⑦ |⑨⑩⑪⑫|
口②口① |----|
81
口口口口 |----|
口口口口 |----|
口口口口 |----|
口口口口 |----|
82
口口口口 |----|
口口口口 |----|
口口口口 |----|
口口口口 |----|
83
口口口口 |①---|
口口口口 |----|
口①口口 |----|
口口口口 |----|

accuracy: 100%
最終更新:2022年05月04日 10:48