アットウィキロゴ
Everybody's Rich
REMO-CON

EXTREME

Level: 10.6
BPM: 160
Notes(hold): 809(119)

1
口口口口 |----|
口口口口 |----|
口口口口 |----|
口口口口 |----|
2
③口口② |①-②-|
⑩⑤⑥口 |③-④-|
口⑦⑧口 |⑤⑥⑦⑧|
①⑨口④ |⑨-⑩-|
3
②口①① |①---|
口③口① |----|
口④口口 |②---|
口口口口 |--③④|
4
口④口② |①---|
口口③口 |②---|
口口口口 |③---|
口①口口 |④---|
5
口口口口 |①---|
口口口口 |②---|
口口③口 |③---|
口①口② |----|
6
口②口口 |--①-|
口口口口 |----|
①口口口 |②---|
口口口口 |----|
7
口口口③ |----|
②口口④ |①---|
口口口口 |②---|
口①口口 |③---④-|
8
口⑤口口 |①---②-|
口口①口 |③---④-|
口口③② |⑤---|
口口口④ |----|
9
口口口① |----|
④口口口 |①-②③|
③口口⑤ |④---|
②口口口 |⑤---|
10
口⑤⑤口 |①-②-|
口②③① |③-④-|
口⑤⑤口 |-⑤--|
②④④③ |----|
11
口口口口 |①-②-|
①③⑤⑦ |③-④-|
口口口口 |⑤-⑥-|
②④⑥⑧ |⑦-⑧-|
12
①③⑤⑦ |①-②-|
口口口口 |③-④-|
②④⑥⑧ |⑤-⑥-|
口口口口 |⑦-⑧-|
13
⑦⑪⑧⑫ |①②③④|
①③④口 |⑤⑥⑦⑧|
⑤口⑩口 |⑨⑩⑪⑫|
口⑨⑥② |⑬⑭⑮⑯|

口口口口
⑬口口⑯
口口口口
⑮口口⑭
14
③③③③ |①---|
⑤②②④ |②---|
口①口口 |③---|
口口口口 |④-⑤-|
15
口口口口 |①-②-|
口②①口 |③-④-|
口②①口 |⑤-⑥-|
>口口③ |⑦-⑧-|

口口口口
口口口口
口口口口
口口④④

口口口⑤
口口口口
口口口口
口口口∧

口口口⑥
口口口⑥
口口口口
口口口口

⑦口口<
口口口口
口口口口
口口口口

⑧⑧口口
口口口口
口口口口
口口口口
16
V口口口 |①-②-|
口口口口 |③-④-|
口口口口 |⑤-⑥⑦|
①口口口 |⑧-⑨⑩|

口口口口
口口口口
②口口口
②口口口

口口口口
口口口口
口口口口
>口口③

口口口口
口口口口
口口口口
口口④④

口口口⑤
口口口口
口口口口
口口口∧

口口口⑥
口⑩⑨⑥
口⑧⑦口
口口口口
17
口②①口 |①-②-|
口口口口 |③-④-|
②口口① |⑤-⑥⑦|
口③口口 |⑧-⑨-|

口口口口
口口口口
口口口口
>口口③

口口口口
口口口口
口口口口
口口④④

口口口⑤
口口口口
口口口口
口口口∧

口口口⑥
口⑦口⑥
口口口口
口口口口

⑧口口<
口口口口
口口口口
口口口口

⑨⑨口口
口口口口
口口口口
口口口口
18
V口口口 |①-②-|
口口口口 |③-④-|
口口口口 |⑤-⑥-|
①口口口 |⑦---|

口口口口
口口口口
②口口口
②口口口

口口口口
口口口口
口③口口
>口口③

口口口口
口口口口
口口④口
口口④④

口口口⑤
口⑤口口
口口口口
口口口∧

口⑦口⑥
口口⑥⑥
口口口口
口∧口口
19
口①①口 |①-②-|
②口口口 |③-④-|
口口口① |⑤-⑥-|
口②口口 |⑦-⑧-|

口口口口
口口口口
口口③口
>口口③

口口口口
口口口口
口口口口
口口④④

口口口⑤
口⑤口口
口口口口
口口口∧

口口口⑥
口口口⑥
口口口口
口口口口

⑦口口<
口口⑦口
口口口口
口口口口

⑧⑧口口
口口口口
口口口口
口口口口
20
V口口口 |①-②-|
口口口口 |③-④-|
口①口口 |⑤-⑥-|
①口口口 |⑦---|

口口口口
口口口口
②口口口
②口口口

口口口口
口口口口
口口③口
>口口③

口口口口
口口口口
口口口口
口口④④

口口口⑤
口⑤口口
口口口口
口口口∧

口⑦⑦⑥
口口口⑥
口口口口
口口口口
21
V口口口 |①-②-|
口口口口 |③-④-|
口①口口 |⑤-⑥-|
①口口口 |⑦-⑧-|

口口口口
口口口口
②口口口
②口口口

口口口口
口口口口
口口③口
>口口③

口口口口
口口口口
口口口口
口口④④

口口口⑤
口⑤口口
口口口口
口口口∧

口口口⑥
口口口⑥
口口口口
口口口口

⑦口口<
口口⑦口
口口口口
口口口口

⑧⑧口口
口口口口
口口口口
口口口口
22
V口口口 |①--②|
口口口口 |③-④-|
口口口口 |⑤-⑥-|
①口口口 |⑦-⑧-|

口⑥⑦口
口口口口
口口口③
②口④⑤

口口口口
口口口口
口口口口
⑧口口口
23
口口口口 |①-②-|
口②①口 |③-④⑤|
口②①口 |⑥-⑦⑧|
>口口③ |⑨-⑩-|

口口口口
口口口口
口口口⑤
口口④④

口口口⑥
口口口口
口口口口
口口口∧

口口⑧⑦
口口口⑦
口口口口
口口口口

⑨口口<
口口口口
口口口口
口口口口

⑩⑩口口
口口口口
口口口口
口口口口
24
V口口口 |①-②③|
口口口口 |④-⑤⑥|
口口口口 |⑦-⑧-|
①口口口 |⑨⑩⑪⑫|

口口口口
口口口口
②口口口
②③口口

口口口口
口口口口
口口口口
>口口④

口口口口
口口口口
口口口⑥
口口⑤⑤

口口口⑦
口口口口
口口口口
口口口∧

口口口⑧
口口口⑧
口口口口
口口口口

⑨口口<
口口口口
口口⑩口
口口口口

⑪⑪口口
口口口口
口⑫口口
口口口口
25
口口口口 |①-②-|
口②①口 |③-④⑤|
口口口口 |⑥-⑦⑧|
>口口③ |⑨-⑩-|

口口口口
口口口口
口口口⑤
口口④④

口口口⑥
口口口口
口口口口
口口口∧

口口⑧⑦
口口口⑦
口口口口
口口口口

⑨口口<
口口⑨口
口口口口
口口口口

⑩⑩口口
口⑩口口
口口口口
口口口口
26
V口口口 |①-②③|
口口口口 |④-⑤⑥|
口口口口 |⑦-⑧-|
①口口口 |⑨---|

口口口口
口口口口
②口口口
②③口口

口口口口
口口口口
口口口口
>口口④

口口口口
口口口口
口口口⑥
口口⑤⑤

口口口⑦
口口口口
口口口口
口口口∧

口口口⑧
口⑨⑨⑧
口⑨⑨口
口口口口
27
V口口口 |①-②-|
口口口口 |③-④⑤|
口口口口 |⑥-⑦⑧|
①口口口 |⑨-⑩-|

口口口口
口口口口
②口口口
②口口口

口口口口
口口口口
口口口口
>口口③

口口口口
口口口口
口口口⑤
口口④④

口口口⑥
口口口口
口口口口
口口口∧

口口⑧⑦
口口口⑦
口口口口
口口口口

⑨口口<
口口口口
口口口口
口口口口

⑩⑩口口
口口口口
口口口口
口口口口
28
V口口口 |①-②③|
口口口口 |④-⑤⑥|
口口口口 |⑦-⑧-|
①口口口 |⑨-⑩-|

口口口口
口口口口
②口口口
②③口口

口口口口
口口口口
口口口口
>口口④

口口口口
口口口口
口口口⑥
口口⑤⑤

口口口⑦
口口口口
口口口口
口口口∧

口口口⑧
口口口⑧
口口口口
口口口口

⑨口口<
口口口口
口口口口
口口口口

⑩⑩口口
口口口口
口口口口
口口口口
29
⑧⑩⑨⑦ |①-②-|
⑧②①⑦ |③④⑤⑥|
④②①③ |⑦-⑧-|
⑥⑫⑪⑤ |⑨⑩⑪⑫|
30
口⑩⑨⑦ |①②③-|
口②⑪④ |④⑤⑥-|
⑤③口① |⑦-⑧⑨|
⑧口口⑥ |⑩⑪⑫⑬|

口口口口
口口口口
口⑫口口
口口⑬口
31
④⑩⑧⑪ |①-②-|
⑤①⑨⑫ |③---④⑤⑥⑦|
⑥口③⑬ |⑧-⑨-|
⑦②口⑭ |⑩---⑪⑫⑬⑭|
32
⑩⑨⑧⑦ |①②③-|
⑪⑤⑥口 |④-⑤-|
⑫①④口 |⑥---⑦⑧⑨⑩|
⑬③②口 |⑪⑫⑬⑭⑮⑯⑰⑱|

口口口口
口口口⑱
口口口⑰
口⑭⑮⑯
33
口口口口 |①---|
口口口口 |----|
口①口口 |----|
口口口口 |----|
34
⑤口④口 |①---②-|
口口②③ |③-④-|
口⑦⑥口 |----⑤-|
口口①口 |⑥⑦⑧⑨|

口口口口
口口口口
口口口口
口⑨⑧口
35
口①口口 |①---②-|
口口口口 |----|
②口口③ |----|
口口口口 |-------③----|
36
③②口口 |---①---②---③|
①口口④ |----|
口口⑤⑥ |----④-|
口口口口 |⑤---⑥-|
37
④口③② |①---|
⑥⑤口口 |②---|
口口口口 |③---④-|
口口①口 |⑤---⑥-|
38
口口口② |①---|
口口④口 |②---|
口①口口 |③--④|
口口口③ |⑤⑥⑦⑧|

口口口口
口口口口
口⑤⑥口
口⑦⑧口
39
③①口⑦ |①---|
⑤④口口 |②---③-|
口⑥口口 |④---⑤-|
②口口口 |⑥---⑦-|
40
口口口口 |----①-|
⑤口口① |②---③-|
⑦⑥②③ |④---⑤-|
口口④口 |⑥---⑦-|
41
口口③③ |①---|
④口②口 |②---|
⑥⑤①口 |③---④-|
口口口口 |⑤---⑥-|
42
口口口⑥ |①---②-|
⑧⑤③口 |③---④-|
口口⑦口 |⑤---⑥-|
④①口② |⑦---⑧-|
43
口口口口 |①---|
口口口口 |----|
②口口② |②---|
口①①口 |----|
44
口⑤⑤口 |①-②-|
①②③① |③-④-|
口⑤⑤口 |-⑤--|
②④④③ |----|
45
①口口口 |①---|
②口②③ |②---|
③口④① |③---|
④口口口 |④---|
46
①口口口 |①---|
②口②③ |②---|
③口④① |③---|
④口口⑤ |④-⑤-|
47
①口口口 |①---|
②口②③ |②---|
③口④① |③---|
④口口口 |④---|
48
①口口口 |①---|
②口②③ |②---|
③口④① |③---|
④口口口 |④---|
49
①口口② |①-②-|
③口口④ |③-④-|
⑤口口⑥ |⑤-⑥-|
⑦口口⑧ |⑦-⑧-|
50
①口口② |①-②-|
③口口④ |③-④-|
⑤口口⑥ |⑤-⑥-|
⑦口口⑧ |⑦-⑧-|
51
⑨①②⑩ |①②③④|
⑪③④⑫ |⑤⑥⑦⑧|
⑬⑤⑥⑭ |⑨⑩⑪⑫|
⑮⑦⑧⑯ |⑬⑭⑮⑯|
52
⑨⑤⑥⑫ |①②③④|
⑩①②⑬ |⑤⑥⑦⑧|
⑪④③⑭ |⑨-⑩-⑪-|
口⑧⑦口 |⑫-⑬-⑭-|
53
口口口口 |①-②-|
口②①口 |③-④-|
口②①口 |⑤-⑥-|
>口口③ |⑦-⑧-|

口口口口
口口口口
口口口口
口口④④

口口口⑤
口口口口
口口口口
口口口∧

口口口⑥
口口口⑥
口口口口
口口口口

⑦口口<
口口口口
口口口口
口口口口

⑧⑧口口
口口口口
口口口口
口口口口
54
V口口口 |①-②-|
口口口口 |③-④-|
口口口口 |⑤-⑥⑦|
①口口口 |⑧-⑨⑩|

口口口口
口口口口
②口口口
②口口口

口口口口
口口口口
口口口口
>口口③

口口口口
口口口口
口口口口
口口④④

口口口⑤
口口口口
口口口口
口口口∧

口口口⑥
口⑩⑨⑥
口⑧⑦口
口口口口
55
口②①口 |①-②-|
口口口口 |③-④-|
②口口① |⑤-⑥⑦|
口③口口 |⑧-⑨-|

口口口口
口口口口
口口口口
>口口③

口口口口
口口口口
口口口口
口口④④

口口口⑤
口口口口
口口口口
口口口∧

口口口⑥
口⑦口⑥
口口口口
口口口口

⑧口口<
口口口口
口口口口
口口口口

⑨⑨口口
口口口口
口口口口
口口口口
56
V口口口 |①②③-|
口口口口 |④-⑤-|
口口口② |⑥-⑦-|
①口口口 |⑧---|

口口口口
口口口口
③口口口
③口口口

口口口口
口口口口
口④口口
>口口④

口口口口
口口口口
口口⑤口
口口⑤⑤

口口口⑥
口⑥口口
口口口口
口口口∧

口⑧口⑦
口口⑦⑦
口口口口
口∧口口
57
口①①口 |①-②-|
②口口口 |③-④-|
口口口① |⑤-⑥-|
口②口口 |⑦-⑧-|

口口口口
口口口口
口口③口
>口口③

口口口口
口口口口
口口口口
口口④④

口口口⑤
口⑤口口
口口口口
口口口∧

口口口⑥
口口口⑥
口口口口
口口口口

⑦口口<
口口⑦口
口口口口
口口口口

⑧⑧口口
口口口口
口口口口
口口口口
58
V口口口 |①-②-|
口口口口 |③-④-|
口①口口 |⑤-⑥-|
①口口口 |⑦---|

口口口口
口口口口
②口口口
②口口口

口口口口
口口口口
口口③口
>口口③

口口口口
口口口口
口口口口
口口④④

口口口⑤
口⑤口口
口口口口
口口口∧

口⑦⑦⑥
口口口⑥
口口口口
口口口口
59
V口口口 |①-②-|
口口口口 |③-④-|
口①口口 |⑤-⑥-|
①口口口 |⑦-⑧-|

口口口口
口口口口
②口口口
②口口口

口口口口
口口口口
口口③口
>口口③

口口口口
口口口口
口口口口
口口④④

口口口⑤
口⑤口口
口口口口
口口口∧

口口口⑥
口口口⑥
口口口口
口口口口

⑦口口<
口口⑦口
口口口口
口口口口

⑧⑧口口
口口口口
口口口口
口口口口
60
口口口口 |①---|
口口口口 |----|
口①①口 |----|
②③④口 |-②③④|
61
①②口口 |①-②-|
③④口⑤ |③-④-|
⑥口口口 |⑤--⑥|
口口口① |⑦⑧⑨-|

口口口口
口口口口
口口口口
口⑨⑧⑦
62
⑧口①③ |①-②-|
口⑥⑦⑤ |③-④-|
口口④② |⑤-⑥⑦|
口口口口 |⑧⑨⑩⑪|

口口⑨口
口口口口
口口口口
口⑩口⑪
63
⑨②口③ |①-②-|
口⑥⑦口 |③-④⑤|
⑧①口口 |⑥⑦⑧-|
④口⑤口 |⑨-⑩-|

口口口口
口口口口
口⑩口口
口口口口
64
⑧③②① |①②③-|
⑨口口⑨ |④⑤⑥-|
⑨口口⑨ |⑦-⑧-|
⑦④⑤⑥ |⑨---|
65
口口口口 |①-②-|
口②①口 |③-④-|
口②①口 |⑤-⑥⑦|
>口口③ |⑧⑨⑩-|

口口口口
口口口口
口口口口
口口④④

口口口⑤
口口口口
口口口口
口口口∧

口口⑦⑥
口口口⑥
口口口口
口口口口

⑧口口<
口口口口
口口口口
口口口口

⑩⑩口口
⑨口口口
口口口口
口口口口
66
V口口口 |①②③-|
口口口口 |④-⑤-|
口口口口 |⑥-⑦-|
①口口口 |⑧-⑨-|

口口口口
口口口口
③口口口
③②口口

口口口口
口④口口
口口口口
>口口④

口口口口
口口口口
口口口口
口口⑤⑤

口口口⑥
口口口口
口口⑥口
口口口∧

口口口⑦
口口口⑦
口口口口
口口口口

⑧口口<
口口口口
口⑧口口
口口口口

⑨⑨口口
口口口口
口口口口
口口口口
67
V口口口 |①-②-|
口口①口 |③-④-|
口口口口 |⑤-⑥-|
①口口口 |⑦-⑧-|

口口口口
口②口口
②口口口
②口口口

口口口口
口口口口
口口③口
>口口③

口口口口
口口口口
口口口口
口④④④

口口口⑤
口口口口
口⑤口口
口口口∧

口口⑥⑥
口口口⑥
口口口口
口口口口

⑦口口<
口口⑦口
口口口口
口口口口

⑧⑧口口
⑧口口口
口口口口
口口口口
68
口口口口 |①-②-|
口②口口 |③-④-|
口①口 |⑤-⑥-|
口∧口口 |⑦⑧⑨-|

口>口⑤
⑥V<口
口>口③
口④口口

口口口⑥
⑦③⑦口
口⑧②④
口⑤口口

口口口口
口口口口
口口⑨口
口口口口
69
V口口口 |①-②-|
口①口口 |③-④-|
口口口口 |⑤-⑥-|
①口口口 |⑦-⑧-|

口口口口
口口口口
②口口口
②③口口

口口口口
口口口口
口口口口
>口口③

口口口口
口口口口
口口口口
口口④④

口口口⑤
口口⑤口
口口口口
口口口∧

口口口⑥
口口口⑥
口口口口
口口口口

⑦口口<
口口口口
口⑦口口
口口口口

⑧⑧口口
口口口口
口口口口
口口口口
70
V口口口 |①-②-|
口口口口 |③-④-|
口口①口 |⑤-⑥-|
①口口口 |⑦-⑧-|

口口口口
口口口口
②口口口
②口口口

口口口口
口③口口
口口口口
>口口③

口口口口
口口口口
口口口口
口口④④

口口口⑤
口口⑤口
口口口口
口口口∧

口口口⑥
口口口⑥
口口口口
口口口口

⑦口口<
口口口口
口⑦口口
口口口口

⑧⑧口口
口口口口
口口口口
口口口口
71
口V⑦口 |①②③④|
⑤口口< |⑤⑥⑦⑧|
>口口③ |⑨⑩⑪⑫|
口①∧口 |⑬⑭⑮⑯|

口⑬口口
>口⑪口
口口口口
⑨∧口<

>口口⑮
口口口口
口口口口
口口口口

口⑭⑧⑯
⑥口⑫口
口口口④
⑩②口口
72
口口口口 |①②③④|
口①口< |⑤⑥⑦⑧|
①口口< |⑨⑩⑪⑫|
口口口口 |⑬⑭⑮⑯|

口口VV
口②口口
②口口口
口口③③

⑤口口<
⑤口口<
口口口口
口口④④

⑥口VV
⑥口口⑦
口口⑦口
口口口口

口口VV
口口⑨⑧
口口⑧⑨
口口口口

口口口口
口口口口
口⑪口<
⑪口口<

口口口口
口口⑩口
口口口⑩
口口口口

口口⑬⑬
口口口口
口⑫口口
⑫口∧∧

口口⑭⑭
口⑮口口
⑮口口口
∧∧口口

口口口口
口⑯口口
⑯口口口
口口口口
73
口VV口 |①---|
口口口口 |----|
口口口口 |----|
口①①口 |----|

口口口口
口①口口
①口口口
口口口口
74
口口口口 |----|
口口口口 |----|
口口口口 |----|
口口口口 |----|
75
口口口口 |--①-|
口口口口 |----|
口口口口 |----|
口①①口 |----|
最終更新:2026年04月28日 15:41