アットウィキロゴ
One More Reason
GUHROOVY

BASIC

Level: 5
BPM: 220
Notes: 373

1
口口口口 |----|
口口口口 |----|
口口口口 |----|
口口口口 |----|
2
口口口口 |①---|
口口口① |----|
口口口口 |----|
口口口口 |----|
3
口口口口 |①---|
①口口口 |----|
口口口口 |----|
口口口口 |----|
4
口口口口 |①---|
口口口口 |----|
口口口口 |----|
口口口① |----|
5
口口口口 |①---|
口口口口 |----|
口口口口 |----|
①口口口 |----|
6
口口口口 |①---|
口口口① |----|
口口口口 |----|
口口口口 |----|
7
口口口口 |①---|
①口口口 |----|
口口口口 |----|
口口口口 |----|
8
口口口口 |①---|
口口口口 |----|
口口口口 |----|
口口口① |----|
9
口口口口 |①---|
口口口口 |----|
口口口口 |----|
①口口口 |----|
10
口口口口 |①---|
口口口① |----|
口口口口 |----|
口口口口 |----|
11
口口口口 |①---|
①口口口 |----|
口口口口 |----|
口口口口 |----|
12
口口口口 |①---|
口口口口 |----|
口口口口 |----|
口口口① |----|
13
口口口口 |①---|
口口口口 |----|
口口口口 |----|
①口口口 |----|
14
口口口口 |①---|
口口口① |----|
口口口口 |----|
口口口口 |----|
15
口口口口 |①---|
①口口口 |----|
口口口口 |----|
口口口口 |----|
16
口口口口 |①---|
口口口口 |----|
口口口口 |----|
口口口① |----|
17
口口口口 |①---|
口口口口 |----|
口口口口 |----|
①口口口 |----|
18
口口口① |①---|
口④②④ |②---|
口③口口 |③---|
口口口口 |--④-|
19
口口口口 |----|
口口口口 |----|
口口口口 |----|
口口口口 |----|
20
①口口口 |①---|
④②④口 |②---|
口口③口 |③---|
口口口口 |--④-|
21
口口口口 |----|
口口口口 |----|
口口口口 |----|
口口口口 |----|
22
口口口口 |①---|
口口口① |②---|
口④②④ |③---|
口③口口 |--④-|
23
口口口口 |----|
口口口口 |----|
口口口口 |----|
口口口口 |----|
24
口口口口 |①---|
①口口口 |②---|
④②④口 |③---|
口口③口 |--④-|
25
口口口口 |----|
口口口口 |----|
口口口口 |----|
口口口口 |----|
26
口口口口 |①---|
口口口口 |----|
口①①口 |----|
口口口口 |----|
27
口口口口 |①---|
口①①口 |----|
口口口口 |----|
口口口口 |----|
28
口口口① |①---|
口口口口 |----|
口口口口 |----|
口口口口 |----|
29
①口口口 |①---|
口口口口 |----|
口口口口 |----|
口口口口 |----|
30
口口口口 |①---|
口口口口 |----|
口口口口 |②---|
①口②口 |----|
31
口口口口 |①---|
口口口② |----|
口口口① |②---|
口口口口 |----|
32
口②①口 |①---|
口口口口 |----|
口口口口 |②---|
口口口口 |----|
33
口口口口 |①---|
①口口口 |----|
口口口口 |----|
口口口口 |----|
34
口口口口 |①---|
④③②① |②---|
口口口口 |③---|
口口口口 |④---|
35
①②③④ |①---|
口口口口 |②---|
口口口口 |③---|
口口口口 |④---|
36
口口口口 |①---|
④③②① |②---|
口口口口 |③---|
口口口口 |④---|
37
①②③口 |①---|
口口口口 |②---|
口口口口 |③---|
口口口口 |----|
38
口口口口 |①---|
口口口口 |②---|
①②③④ |③---|
口口口口 |④---|
39
口口口口 |①---|
④③②① |②---|
口口口口 |③---|
口口口口 |④---|
40
口口口口 |①---|
口口口口 |②---|
①②③④ |③---|
口口口口 |④---|
41
口口口口 |①---|
口③②① |②---|
口口口口 |③---|
口口口口 |----|
42
口口口口 |①---|
②口口口 |----|
②①①口 |②---|
口口口口 |----|
43
口口口口 |①---|
口①②口 |----|
口①②口 |②---|
口口口口 |----|
44
①①口口 |①---|
②②口口 |②---|
③③口口 |③---|
口口口口 |----|
45
口口口① |①---|
口口②口 |②---|
口③口口 |③---|
④口口口 |④---|
46
口口口口 |①---|
①②口口 |----|
①②口口 |②---|
口口口口 |----|
47
口口口口 |①---|
口口①② |----|
口口①② |②---|
口口口口 |----|
48
①口口口 |①---|
口②口口 |②---|
口口③口 |③---|
口口口④ |④---|
49
口口口口 |①---|
②口口① |----|
②口口① |②---|
口口口口 |----|
50
口①①口 |①---|
口口口口 |----|
口②②口 |②---|
口口口口 |----|
51
口①①口 |①---|
口口口③ |----|
口②②口 |②---|
口口口口 |--③-|
52
口①①口 |①---|
口口口口 |----|
口②②口 |②---|
口口口口 |----|
53
口①①口 |①---|
③口口④ |----|
口②②口 |②-③-|
口口口口 |--④-|
54
口口口口 |①---|
口①①口 |----|
口口口口 |②---|
口②②口 |----|
55
口口口口 |①---|
口①①口 |----|
③口口口 |②---|
口②②口 |--③-|
56
口口口口 |①---|
口①①口 |----|
口口口口 |②---|
口②②口 |----|
57
口口口口 |①---|
口①①口 |----|
口口口口 |----|
口口口口 |----|
58
口口口② |①---|
④口③口 |②-③-|
①①口口 |--④-|
口口口口 |----|
59
②口口口 |①---|
口③口④ |②-③-|
口口①① |--④-|
口口口口 |----|
60
口口口口 |①---|
口口②④ |②-③-|
口③口口 |--④-|
①①口口 |----|
61
口口口口 |①---|
④②口口 |②-③-|
口口③口 |--④-|
口口①① |----|
62
口口口② |①---|
④口③口 |②-③-|
①①口口 |--④-|
口口口口 |----|
63
②口口口 |①---|
口③口④ |②-③-|
口口①① |--④-|
口口口口 |----|
64
口①口口 |①---|
口口②口 |②---|
口③口口 |③---|
口口④口 |④---|
65
口口口② |①---|
④口③口 |②-③-|
①口口① |--④-|
口口口口 |----|
66
①②③④ |①---|
口口口口 |②---|
口口口口 |③---|
口口口口 |④---|
67
口口口口 |①---|
口口口① |②---|
口④⑤② |③---|
口口口③ |④-⑤-|
68
④③②① |①---|
口口口口 |②---|
口口口口 |③---|
口口口口 |④---|
69
口口口口 |①---|
①口口口 |②---|
②⑤④口 |③---|
③口口口 |④-⑤-|
70
①口口口 |①---|
②口口口 |②---|
③口口口 |③---|
④口口口 |④---|
71
口口口口 |①---|
口口口口 |②---|
口④⑤口 |③---|
口①②③ |④-⑤-|
72
口口口① |①---|
口口口② |②---|
口口口③ |③---|
口口口④ |④---|
73
口口口口 |①---|
口口口口 |----|
口①①口 |----|
口口口口 |----|
74
口口口口 |①---|
口④③口 |②---|
口②①口 |③---|
口口口口 |④---|
75
①口口① |①---|
口口口口 |----|
②口口② |②---|
口口口口 |----|
76
口口口口 |①---|
口①②口 |②---|
口③④口 |③---|
口口口口 |④---|
77
口口口口 |①---|
①口口① |----|
口口口口 |②---|
②口口② |----|
78
口口口口 |①---|
口④③口 |②---|
口②①口 |③---|
口口口口 |④---|
79
①口口① |①---|
口口口口 |----|
②口口② |②---|
口口口口 |----|
80
口口口口 |①---|
口①②口 |②---|
口③④口 |③---|
口口口口 |④---|
81
口口口口 |①---|
①口口① |----|
口口口口 |----|
口口口口 |----|
82
①②③④ |①---|
口口口口 |②---|
口口口口 |③---|
口口口口 |④---|
83
口口口口 |①---|
口口口① |②---|
口⑤口② |③---|
口口④③ |④-⑤-|
84
口口口口 |①---|
④口口口 |②---|
③口口口 |③---|
②①口口 |④---|
85
①②口口 |①---|
口③③口 |②---|
口口口口 |③---|
口口口口 |----|
86
④③②① |①---|
口口口口 |②---|
口口口口 |③---|
口口口口 |④---|
87
口口口口 |①---|
①口口口 |②---|
②口⑤口 |③---|
③④口口 |④-⑤-|
88
口口口口 |①---|
口口口④ |②---|
口口口③ |③---|
口口①② |④---|
89
口口②① |①---|
口③③口 |②---|
口口口口 |③---|
口口口口 |----|
90
①②③④ |①-②-|
⑤⑥⑦⑧ |③-④-|
口口口口 |⑤-⑥-|
口口口口 |⑦-⑧-|
91
口口口口 |①-②-|
口口口口 |③-④-|
①②③④ |⑤-⑥-|
⑤⑥⑦⑧ |⑦-⑧-|
92
口口口口 |①-②-|
①②③④ |③-④-|
⑤⑥⑦⑧ |⑤-⑥-|
口口口口 |⑦-⑧-|
93
口口口口 |①---|
口口口口 |----|
口口口口 |----|
口①①口 |----|
94
④③②① |①-②-|
⑧⑦⑥⑤ |③-④-|
口口口口 |⑤-⑥-|
口口口口 |⑦-⑧-|
95
口口口口 |①-②-|
口口口口 |③-④-|
④③②① |⑤-⑥-|
⑧⑦⑥⑤ |⑦-⑧-|
96
口口口口 |①-②-|
④③②① |③-④-|
⑧⑦⑥⑤ |⑤-⑥-|
口口口口 |⑦-⑧-|
97
④①①② |①---|
口口③口 |②-③-|
⑤口口口 |--④-|
口口口口 |--⑤-|
98
口①①口 |①---|
口口口口 |----|
口②②口 |②---|
口口口口 |----|
99
①口口① |①---|
口口口口 |----|
②口口② |②---|
口口口口 |----|
100
口①①口 |①---|
口口口口 |----|
口②②口 |②---|
口口口口 |----|
101
①口口① |①---|
③口口③ |----|
②口口② |②---|
口口口口 |--③-|
102
口口口口 |①---|
口①①口 |----|
口口口口 |②---|
口②②口 |----|
103
口口口口 |①---|
①口口① |----|
口口口口 |②---|
②口口② |----|
104
口口口口 |①---|
口①①口 |----|
口口口口 |②---|
口②②口 |----|
105
口口口口 |①---|
口口口口 |----|
①①①① |----|
口口口口 |----|

accuracy: 100%
最終更新:2022年04月27日 04:12