アットウィキロゴ
One More Reason
GUHROOVY

ADVANCED

Level: 8
BPM: 220
Notes: 675

1
口口口口 |----|
口口口口 |----|
口口口口 |----|
口口口口 |----|
2
口②口口 |①---|
口口口① |----|
口①口口 |②---|
口口口口 |----|
3
口口②口 |①---|
①口口口 |----|
口口①口 |②---|
口口口口 |----|
4
口②口口 |①---|
口口口① |----|
口①口口 |②---|
口口口口 |----|
5
口口②口 |①---|
①口口口 |----|
口口①口 |②---|
口口口口 |----|
6
口口口口 |①---|
口①口口 |----|
口口口① |②---|
口②口口 |----|
7
口口口口 |①---|
口口①口 |----|
①口口口 |②---|
口口②口 |----|
8
口口口口 |①---|
口①口口 |----|
口口口① |②---|
口②口口 |----|
9
口口口口 |①---|
口口①口 |----|
①口口口 |②---|
口口②口 |----|
10
口①③② |①---|
口口口口 |----|
口③①口 |②---|
口口口口 |---③|
11
①口口口 |----|
口口口口 |----|
口口口口 |①---|
口口口口 |----|
12
口①口② |①---|
口口口口 |----|
口口①口 |②---|
口口口口 |----|
13
②口①口 |①---|
口口口口 |----|
口①口口 |②---|
口口口口 |----|
14
口口口口 |①---|
口①口② |----|
口口口口 |②---|
口口①口 |----|
15
口口口口 |①---|
②口①口 |----|
口口口口 |②---|
口①口口 |----|
16
口口口口 |①---|
口①口② |----|
口口口口 |②---|
口口①口 |----|
17
口口③口 |①---|
②④①口 |----|
⑤口口口 |②-③-|
口①口口 |④-⑤-|
18
⑤①⑤① |①---|
口口口口 |②-③-|
口②③④ |④-⑤-|
⑥口⑥口 |--⑥-|
19
口①口口 |----|
口口②口 |----|
口口口③ |--①-|
口口口口 |②-③-|
20
①⑤①⑤ |①---|
口口口口 |②-③-|
④③②口 |④-⑤-|
口⑥口⑥ |--⑥-|
21
口口①口 |----|
口②口口 |----|
③口口口 |--①-|
口口口口 |②-③-|
22
⑤①⑤① |①---|
口口口口 |②-③-|
口②③④ |④-⑤-|
⑥口⑥口 |--⑥-|
23
口①口口 |----|
口口②口 |----|
口口口③ |--①-|
口口口口 |②-③-|
24
①⑤①⑤ |①---|
口口口口 |②-③-|
④③②口 |④-⑤-|
口⑥口⑥ |--⑥-|
25
口口口口 |----|
口口口口 |----|
口口口口 |----|
口口口口 |----|
26
口口口口 |①---|
口口口口 |----|
①①①① |----|
口口口口 |----|
27
口口口口 |①---|
①①①① |----|
口口口口 |----|
口口口口 |----|
28
口口②① |①---|
口口口口 |----|
口口口口 |②---|
口口口口 |----|
29
②①口口 |①---|
口口口口 |----|
口口口口 |②---|
口口口口 |----|
30
口口口口 |①---|
①口口口 |----|
②口口口 |②---|
口口口口 |----|
31
口口口口 |①---|
口口口口 |----|
口口口口 |②---|
①②口口 |----|
32
口口口口 |①---|
口口口④ |②---|
口口口③ |③---|
口口①② |④---|
33
口口口① |①---|
口口口口 |----|
口口口口 |----|
②②②② |②---|
34
①⑤③口 |①-②-|
④口⑦口 |③-④-|
⑧②⑥口 |⑤-⑥-|
口口口口 |⑦-⑧-|
35
口⑦⑥口 |①-②-|
⑤①口③ |③-④-|
口④口⑧ |⑤-⑥-|
口口②口 |⑦-⑧-|
36
⑦口口口 |①-②-|
口口①⑤ |③-④-|
④⑥⑧口 |⑤-⑥-|
②口③口 |⑦-⑧-|
37
口⑥①⑤ |①-②-|
②⑥口⑤ |③-④-|
口口口③ |⑤-⑥-|
④口口口 |----|
38
口口口口 |①-②-|
口⑥②⑧ |③-④-|
口⑦口④ |⑤-⑥-|
口③⑤① |⑦-⑧-|
39
口②口口 |①-②-|
⑧口④口 |③-④-|
③口①⑤ |⑤-⑥-|
口⑥⑦口 |⑦-⑧-|
40
口③口② |①-②-|
口⑧⑥④ |③-④-|
⑤①口口 |⑤-⑥-|
口口口⑦ |⑦-⑧-|
41
⑤口口⑤ |①-②-|
口口口④ |③-④-|
口③口② |⑤---|
⑥①口⑥ |⑥---|
42
口⑤①⑤ |①-②-|
口②⑥口 |③-④-|
口⑦③口 |⑤-⑥-|
口④⑧口 |⑦-⑧-|
43
口⑤①口 |①-②-|
口②⑥口 |③-④-|
①⑦③⑤ |⑤-⑥-|
口④⑧口 |⑦-⑧-|
44
①⑤①⑤ |①-②-|
口②⑥口 |③-④-|
③⑦③口 |⑤-⑥-|
口④⑧口 |⑦-⑧-|
45
①⑤①⑤ |①-②-|
口②⑥口 |③-④-|
③⑦③⑦ |⑤-⑥-|
口④口口 |⑦---|
46
①⑤①⑤ |①-②-|
口②⑥口 |③-④-|
口⑦③口 |⑤-⑥-|
口④口口 |⑦---|
47
口⑥②口 |①-②-|
①③⑦⑤ |③-④-|
口口④口 |⑤-⑥-|
口⑤①口 |⑦---|
48
②④③① |①---|
口口口口 |②---|
①③④② |③---|
口口口口 |④---|
49
口口口口 |①---|
①①①① |----|
口口口口 |②---|
②②②② |----|
50
口②口口 |①---|
①①③③ |--②-|
口口口口 |③---|
④口口口 |④---|
51
③③①① |①---|
口口口口 |--②-|
④②⑤⑤ |③---|
口口口口 |④-⑤-|
52
口口口口 |①---|
①①③③ |--②-|
口口口口 |③---|
④口②口 |④---|
53
③③①① |①---|
口口④④ |--②-|
口②口口 |③-④-|
口口⑤口 |--⑤-|
54
口口③③ |①---|
①①口口 |--②-|
④口口② |③---|
口口口口 |④---|
55
①①口口 |①---|
口③口口 |--②-|
⑤⑤②④ |③---|
口口口口 |④-⑤-|
56
口口口口 |①---|
口口③③ |--②-|
口口④口 |③---|
口②①① |④---|
57
①①口口 |①---|
口口口口 |----|
口口口口 |----|
口口口口 |----|
58
④⑤口② |①---|
口口口口 |②-③-|
④⑤③口 |--④-|
口①①口 |--⑤-|
59
口口口② |①---|
⑤口口⑤ |②-③-|
④口③④ |--④-|
①口口① |--⑤-|
60
②口⑤④ |①---|
口口口口 |②-③-|
口③⑤④ |--④-|
口①①口 |--⑤-|
61
②④口④ |①---|
口口口口 |②-③-|
⑤③口口 |--④-|
①⑤口① |--⑤-|
62
②口⑤④ |①---|
口口口口 |②-③-|
口③⑤④ |--④-|
①口口① |--⑤-|
63
②口口口 |①---|
⑤口口⑤ |②-③-|
④③口④ |--④-|
口①①口 |--⑤-|
64
②③③① |①---|
口①②口 |②---|
口口口口 |③---|
口④④口 |④---|
65
③口口③ |①---|
口口口口 |②---|
口①②口 |--③-|
②④④① |--④-|
66
口③⑤⑦ |①---|
①②④⑥ |②-③-|
口口口① |④-⑤-|
口口口口 |⑥-⑦-|
67
口口口口 |①---|
①口口口 |②-③-|
⑥④②① |④-⑤-|
⑦⑤③口 |⑥-⑦-|
68
口③⑤⑦ |①---|
①②④⑥ |②-③-|
口口口① |④-⑤-|
口口口口 |⑥-⑦-|
69
口口口口 |①---|
①口口口 |②-③-|
⑥④②① |④-⑤-|
⑦⑤③口 |⑥-⑦-|
70
⑦⑤③① |①---|
⑥④②① |②-③-|
口口口口 |④-⑤-|
口口口口 |⑥-⑦-|
71
口口口口 |①---|
口口口口 |②-③-|
①②④⑥ |④-⑤-|
①③⑤⑦ |⑥-⑦-|
72
⑦⑤③① |①---|
⑥④②① |②-③-|
口口口口 |④-⑤-|
口口口口 |⑥-⑦-|
73
口④④② |①---|
口口口口 |②-③-|
①口③口 |--④-|
①⑤⑤口 |--⑤-|
74
口口口口 |①---|
④②①③ |②---|
②④③① |③---|
口口口口 |④---|
75
口①①口 |①---|
口口口口 |----|
口口口口 |②---|
口②②口 |----|
76
口口口口 |①---|
②④③① |②---|
④②①③ |③---|
口口口口 |④---|
77
口①①口 |①---|
口口口口 |----|
口口口口 |②---|
口②②口 |----|
78
口口口口 |①---|
④②①③ |②---|
②④③① |③---|
口口口口 |④---|
79
口①①口 |①---|
口口口口 |----|
口口口口 |②---|
口②②口 |----|
80
口②①口 |①---|
②④③① |②---|
④口口③ |③---|
口口口口 |④---|
81
①口口① |①---|
⑤口口⑤ |②-③-|
口④④口 |--④-|
口③②口 |⑤---|
82
①③⑤⑦ |①-②-|
口口口口 |③-④-|
口口口口 |⑤-⑥-|
⑧⑥④② |⑦-⑧-|
83
⑥⑧口口 |①-②-|
④口口① |③-④-|
②口口③ |⑤-⑥-|
口口⑦⑤ |⑦-⑧-|
84
口口②④ |①-②-|
⑦口口⑥ |③-④-|
⑤口口⑧ |⑤-⑥-|
③①口口 |⑦-⑧-|
85
①③口⑤ |①-②-|
口口⑤⑤ |③-④-|
⑥⑥口口 |--⑤-|
⑥口④② |--⑥-|
86
①③⑤⑦ |①-②-|
口口口口 |③-④-|
口口口口 |⑤-⑥-|
⑧⑥④② |⑦-⑧-|
87
⑥⑧口口 |①-②-|
④口口① |③-④-|
②口口③ |⑤-⑥-|
口口⑦⑤ |⑦-⑧-|
88
口口②④ |①-②-|
⑦口口⑥ |③-④-|
⑤口口⑧ |⑤-⑥-|
③①口口 |⑦-⑧-|
89
①③③口 |①-②-|
⑤口口⑤ |③-④-|
口④④口 |----|
口口口② |⑤---|
90
③⑦⑤① |①-②-|
口口口口 |③-④-|
口口口口 |⑤-⑥-|
⑥②④⑧ |⑦-⑧-|
91
口口口口 |①-②-|
①⑤⑦③ |③-④-|
④口口② |⑤-⑥-|
口⑧⑥口 |⑦-⑧-|
92
⑤①③⑦ |①-②-|
口口口口 |③-④-|
口⑧⑥口 |⑤-⑥-|
④口口② |⑦-⑧-|
93
口⑨⑨口 |①-②-|
⑤⑥⑦⑧ |③-④-|
②口口① |⑤⑥⑦⑧|
口④③口 |⑨---|
94
③口口① |①-②-|
⑤口口⑦ |③-④-|
口②④口 |⑤-⑥-|
⑧口口⑥ |⑦-⑧-|
95
口⑤⑦口 |①-②-|
口②④口 |③-④-|
③口口① |⑤-⑥-|
口⑧⑥口 |⑦-⑧-|
96
口口口口 |①-②-|
②⑨⑨④ |③-④-|
⑧⑦⑥⑤ |⑤⑥⑦⑧|
③口口① |⑨---|
97
口①①④ |①---|
②口口口 |②-③-|
⑤⑤口④ |--④-|
口③口口 |--⑤-|
98
口口口口 |①---|
③③①① |--②-|
口口口口 |③---|
④口②口 |④---|
99
口口口口 |①---|
口口③③ |--②-|
口口①① |③---|
口②④④ |④---|
100
①①③③ |①---|
口口口口 |--②-|
口②口④ |③---|
口口口口 |④---|
101
口口口口 |①---|
①①③③ |--②-|
口口⑤口 |③---|
口④②口 |④-⑤-|
102
口口口口 |①---|
①①③③ |--②-|
口口口口 |③---|
②口口④ |④---|
103
口②④口 |①---|
口口口口 |--②-|
①①③③ |③---|
口口口口 |④---|
104
口口口④ |①---|
①①口口 |--②-|
口口③③ |③---|
②口口口 |④---|
105
口①⑤口 |①-②-|
口⑥②口 |③-④-|
口③⑦口 |⑤-⑥-|
口⑧④口 |⑦-⑧-|

accuracy: 100%
最終更新:2022年04月27日 04:33