アットウィキロゴ
One More Reason
GUHROOVY

EXTREME

Level: 10.6
BPM: 220
Notes: 895

1
口口口口 |----|
口口口口 |----|
口口口口 |----|
口口口口 |----|
2
口⑤①口 |①-②-|
②口口⑥ |③-④-|
口⑦③口 |⑤-⑥-|
④口口⑧ |⑦-⑧-|
3
口⑤①口 |①-②-|
②口口⑥ |③-④-|
口⑦③口 |⑤-⑥-|
④口口⑧ |⑦-⑧-|
4
口⑤①口 |①-②-|
②口口⑥ |③-④-|
口⑦③口 |⑤-⑥-|
④口口⑧ |⑦-⑧-|
5
口⑤①口 |①-②-|
②口口⑥ |③-④-|
口⑦③口 |⑤-⑥-|
④口口⑧ |⑦-⑧-|
6
⑧口口④ |①-②-|
口③⑦口 |③-④-|
⑥口口② |⑤-⑥-|
口①⑤口 |⑦-⑧-|
7
⑧口口④ |①-②-|
口③⑦口 |③-④-|
⑥口口② |⑤-⑥-|
口①⑤口 |⑦-⑧-|
8
⑧口口④ |①-②-|
口③⑦口 |③-④-|
⑥口口② |⑤-⑥-|
口①⑤口 |⑦-⑧-|
9
⑧口口④ |①-②-|
口③⑦口 |③-④-|
⑥口口② |⑤-⑥-|
口①⑤口 |⑦-⑧-|
10
口⑤①口 |①-②-|
②口口⑥ |③-④-|
口⑦③口 |⑤-⑥-|
④口口⑧ |⑦-⑧-|
11
口⑤①口 |①-②-|
②口口⑥ |③-④-|
口⑦③口 |⑤-⑥-|
④口口⑧ |⑦-⑧-|
12
口⑤①口 |①-②-|
②口口⑥ |③-④-|
口⑦③口 |⑤-⑥-|
④口口⑧ |⑦-⑧-|
13
口⑤①口 |①-②-|
②口口⑥ |③-④-|
口⑦③口 |⑤-⑥-|
④口口⑧ |⑦-⑧-|
14
⑧口口④ |①-②-|
口③⑦口 |③-④-|
⑥口口② |⑤-⑥-|
口①⑤口 |⑦-⑧-|
15
⑧口口④ |①-②-|
口③⑦口 |③-④-|
⑥口口② |⑤-⑥-|
口①⑤口 |⑦-⑧-|
16
⑧口口④ |①-②-|
口③⑦口 |③-④-|
⑥口口② |⑤-⑥-|
口①⑤口 |⑦-⑧-|
17
口②①口 |①-②-|
⑥口口口 |③-④-|
口⑦口⑤ |⑤-⑥-|
④口⑧③ |⑦-⑧-|
18
③⑥②⑥ |①---|
口①口① |②-③-|
⑤⑥④⑥ |④-⑤-|
口口口口 |--⑥-|
19
口口口口 |----|
口口口① |----|
口口②口 |--①-|
口③口口 |②-③-|
20
⑥②⑥③ |①---|
①口①口 |②-③-|
⑥④⑥⑤ |④-⑤-|
口口口口 |--⑥-|
21
口③口口 |----|
口口②口 |----|
口口口① |--①-|
口口口口 |②-③-|
22
口口口口 |①---|
⑥④⑥⑤ |②-③-|
①口①口 |④-⑤-|
⑥②⑥③ |--⑥-|
23
口口③口 |----|
口②口口 |----|
①口口口 |--①-|
口口口口 |②-③-|
24
口口口口 |①---|
⑤⑥④⑥ |②-③-|
口①口① |④-⑤-|
③⑥②⑥ |--⑥-|
25
口口口口 |----|
口口口口 |----|
口口口口 |----|
口口口口 |----|
26
口口口口 |①---|
口口口口 |----|
①①①① |----|
口口口口 |----|
27
①①①① |①---|
口口口口 |----|
口口口口 |----|
口口口口 |----|
28
口口口口 |①---|
口口口口 |----|
口口口口 |②---|
口口②① |----|
29
口口口口 |①---|
口口口口 |----|
口口口口 |②---|
②①口口 |----|
30
③④口口 |①---|
②口口口 |②---|
①口口口 |③---|
口口口口 |④---|
31
口口①② |①-②-|
口⑦⑧③ |③-④-|
口⑥⑤④ |⑤-⑥-|
口口口口 |⑦-⑧-|
32
⑦⑧⑨⑩ |①②③④|
⑥⑮⑯⑪ |⑤⑥⑦⑧|
⑤⑭⑬⑫ |⑨⑩⑪⑫|
④③②① |⑬⑭⑮⑯|
33
口口口口 |----|
口口口口 |----|
口口口口 |----|
①口口① |①---|
34
①④⑦① |①-②-|
②⑧⑨口 |③-④-|
③⑤口⑤ |⑤-⑥-|
口⑥③口 |⑦⑧⑨-|
35
②⑤⑦⑤ |①-②-|
③口口① |③-④-|
⑧⑨①口 |⑤-⑥-|
④⑥口③ |⑦-⑧⑨|
36
②⑥口⑤ |①-②-|
⑧⑨①③ |③-④-|
口口①⑤ |⑤-⑥-|
④口⑦③ |⑦-⑧⑨|
37
口口①口 |①-②-|
口口①口 |③-④-|
②⑦⑥⑤ |⑤⑥⑦-|
④③口③ |----|
38
①⑦④① |①-②-|
口⑨⑧② |③-④-|
⑤口口⑤ |⑤-⑥-|
口③⑥③ |⑦-⑧⑨|
39
⑤⑦⑤② |①-②-|
①口口③ |③-④-|
口①⑨⑧ |⑤-⑥-|
③口⑥④ |⑦-⑧⑨|
40
⑤口⑥② |①-②-|
③①⑨⑧ |③-④-|
⑤①口口 |⑤-⑥-|
③⑦口④ |⑦-⑧⑨|
41
口⑧⑧口 |①-②-|
口①口口 |③-④-|
⑤⑥⑦② |⑤⑥⑦-|
③口口④ |⑧---|
42
⑤口⑦② |①-②-|
①③⑤① |③-④-|
口⑥口口 |⑤-⑥-|
⑧⑨口④ |⑦-⑧⑨|
43
⑥④口⑧ |①-②-|
②口⑨① |③-④-|
⑤口③⑦ |⑤-⑥-|
口口①⑤ |⑦-⑧⑨|
44
⑤口①口 |①---|
②③口② |②-③-|
④①④口 |④-⑤-|
⑧⑦⑥口 |⑥⑦⑧-|
45
⑧①⑤② |①-②-|
口⑥③口 |③-④-|
⑦④⑤① |⑤⑥⑦-|
口口⑧③ |⑧---|
46
口④口⑤ |①-②-|
①口口① |③-④-|
⑥口⑤③ |⑤-⑥-|
②⑨⑧⑦ |⑦⑧⑨-|
47
④⑤①口 |①-②-|
①口口③ |③-④-|
口②口⑤ |⑤-⑥-|
⑥口口⑦ |⑦---|
48
口③①口 |①---|
①②口④ |②---|
口口③口 |③---|
口④②口 |④---|
49
②口口② |①---|
口口口口 |----|
①②②① |②---|
口口口口 |----|
50
口口口口 |①---|
①①③③ |--②-|
口口口口 |③---|
④口②口 |④---|
51
③③①① |①---|
口口口口 |--②-|
④②⑤⑤ |③---|
口口口口 |④-⑤-|
52
口口口口 |①---|
①①③③ |--②-|
口口口口 |③---|
④口②口 |④---|
53
③③①① |①---|
口口④④ |--②-|
口②⑤口 |③-④-|
口⑥口口 |--⑤⑥|
54
口口③③ |①---|
①①口口 |--②-|
④口口② |③---|
口口口口 |④---|
55
①①口口 |①---|
口③口口 |--②-|
⑤⑤②④ |③---|
口口口口 |④-⑤-|
56
⑤③④⑥ |①---|
口口②口 |--②-|
口口口口 |③-④-|
口口①① |⑤-⑥-|
57
口⑦⑦口 |①-②-|
①口口② |③-④-|
③⑦⑦④ |⑤-⑥-|
⑤口口⑥ |⑦---|
58
口⑤口④ |①---|
口①①② |②-③-|
口⑤口④ |--④-|
口③口口 |--⑤-|
59
②口口口 |①---|
④①⑤口 |②-③-|
①口③口 |--④-|
④口⑤口 |--⑤-|
60
⑤③⑤口 |①---|
口①口口 |②-③-|
④①④② |--④-|
口口口口 |--⑤-|
61
口口口口 |①---|
②④①④ |②-③-|
口①口口 |--④-|
口⑤③⑤ |--⑤-|
62
④口⑤② |①---|
口口①口 |②-③-|
④③⑤① |--④-|
口口口口 |--⑤-|
63
口口口口 |①---|
②⑤①④ |②-③-|
口口口① |--④-|
口⑤③④ |--⑤-|
64
⑦①①③ |①---|
④口口口 |②-③-|
口②②⑤ |④-⑤-|
⑥口口口 |⑥-⑦-|
65
口④④口 |①---|
口口①① |②-③-|
②②口口 |--④-|
口⑤⑤③ |--⑤-|
66
⑤口⑦① |①---|
口②口② |②-③-|
口口③④ |④-⑤-|
①口口⑥ |⑥-⑦-|
67
口口口口 |①---|
①⑦②⑤ |②-③-|
⑥③口口 |④-⑤-|
④②①口 |⑥-⑦-|
68
②④⑥口 |①---|
①口⑤口 |②-③-|
口口②口 |④-⑤-|
⑦③口① |⑥-⑦-|
69
⑦⑥口① |①---|
①②口② |②-③④|
⑤④③⑤ |⑤--⑥|
⑦⑥口口 |--⑦-|
70
口口⑥③ |①-②-|
②③口⑤ |③-④-|
⑧口④⑦ |⑤-⑥-|
口口①口 |⑦-⑧-|
71
口①口口 |①---|
口⑦②⑤ |②-③-|
口③口口 |④-⑤-|
⑥④②① |⑥-⑦-|
72
④⑥口① |①---|
②口②口 |②-③-|
①③口口 |④-⑤-|
口⑦口⑤ |⑥-⑦-|
73
④口①④ |①---|
口②口口 |②-③-|
①口③口 |--④-|
⑤口口⑤ |--⑤-|
74
⑤①①口 |①---|
口④口④ |②-③-|
②口口口 |④---|
口①③口 |⑤---|
75
口①①口 |①---|
③口③口 |--②-|
口①口口 |③---|
①③口② |----|
76
②①①口 |①---|
口④口④ |②-③-|
⑤口口口 |④---|
①口③口 |⑤---|
77
③①①口 |①---|
③口③口 |--②-|
口①口口 |③---|
①口口② |----|
78
口①①⑤ |①---|
④口④口 |②-③-|
口口口② |④---|
口③①口 |⑤---|
79
口①①口 |①---|
口③口③ |--②-|
口口①口 |③---|
②口③① |----|
80
口①①② |①---|
④口④口 |②-③-|
口口口⑤ |④---|
口③口① |⑤---|
81
④①①⑤ |①---|
口口口口 |②-③-|
口①①口 |--④-|
②口口③ |⑤---|
82
⑥口⑨口 |①-②-|
①③⑤⑦ |③-④-|
②④⑥⑧ |⑤-⑥-|
⑧口①口 |⑦-⑧⑨|
83
口⑧口⑥ |①-②-|
①③⑤⑦ |③-④-|
②④⑥⑧ |⑤-⑥-|
口①⑨口 |⑦-⑧⑨|
84
⑥口①口 |①-②-|
①③⑤⑦ |③-④-|
②④⑥⑧ |⑤-⑥-|
⑧口⑨口 |⑦-⑧⑨|
85
⑥⑦⑧⑨ |①-②-|
①③⑤口 |③-④-|
②④口口 |⑤---⑥⑦⑧⑨|
⑩⑪⑫⑬ |----⑩⑪⑫⑬|
86
⑥口口⑨ |①-②-|
①③⑤⑦ |③-④-|
②④⑥⑧ |⑤-⑥-|
口⑧口口 |⑦-⑧⑨|
87
⑧口①口 |①-②-|
①③⑤⑦ |③-④-|
②④⑥⑧ |⑤-⑥-|
⑥口⑨口 |⑦-⑧⑨|
88
口⑥①口 |①-②-|
①③⑤⑦ |③-④-|
②④⑥⑧ |⑤-⑥-|
口⑧⑨口 |⑦-⑧⑨|
89
口⑤⑤① |①-②-|
①③口口 |③-④-|
②口口口 |----|
④口口④ |⑤---|
90
③⑨⑧⑥ |①-②-|
⑦⑤③① |③-④-|
⑧⑥④② |⑤-⑥-|
口①口口 |⑦-⑧⑨|
91
口⑨口⑥ |①-②-|
⑦⑤③① |③-④-|
⑧⑥④② |⑤-⑥-|
口①⑧③ |⑦-⑧⑨|
92
④口口口 |①-②-|
⑦⑤③① |③-④-|
⑧⑥④② |⑤-⑥-|
③①口口 |⑦-⑧-|
93
⑦⑤③① |①②③④|
⑬⑪⑨⑬ |⑤⑥⑦⑧|
口⑫⑩口 |⑨⑩⑪⑫|
⑧⑥④② |⑬---|
94
⑤④③④ |①②③-|
⑨⑩⑪⑫ |④-⑤-|
②口⑦① |⑥-⑦-|
⑥⑧⑤⑦ |⑧---⑨⑩⑪⑫|
95
⑦③②⑤ |①-②-|
口口口口 |③-④-|
④①⑥③ |⑤-⑥-|
⑪⑩⑨⑧ |⑦---⑧⑨⑩⑪|
96
口⑥③⑦ |--①②|
④⑩⑪① |③④⑤⑥|
⑧②⑨⑤ |⑦⑧⑨⑩|
口口口口 |⑪---|
97
口口④④ |①---|
口口口② |②-③-|
口③口口 |--④-|
①⑤⑤口 |--⑤-|
98
①①④口 |①---|
口口口② |--②-|
③③口口 |③---|
口口口① |④---|
99
口口口口 |①---|
①①②口 |--②-|
口口口① |③---|
③③④口 |④---|
100
①①④口 |①---|
口口口② |--②-|
③③口口 |③---|
口口口① |④---|
101
口口口口 |①---|
①①②口 |--②-|
⑤口口① |③---|
③③④口 |④-⑤-|
102
②口①① |①---|
口口口口 |--②-|
口口③③ |③---|
口④口口 |④---|
103
口口口口 |①---|
②口①① |--②-|
口④口口 |③---|
口口③③ |④---|
104
④口①① |①---|
口②口口 |--②-|
口口③③ |③---|
①口口口 |④---|
105
口①⑤口 |①-②-|
⑥口口② |③-④-|
口③⑦口 |⑤-⑥-|
⑧口口④ |⑦-⑧-|

accuracy: 100%
最終更新:2022年04月27日 05:07