アットウィキロゴ
Fairy Fair
ぺのれり

BASIC

Level: 4
BPM: 157
Notes: 302

1
口口口口 |(157)----|
口口口口 |----|
口口口口 |----|
口口口口 |----|
2
口口①① |①---|
口口②② |②---|
口口③③ |③---|
口口④④ |④---|
3
①①口口 |①---|
②②口口 |②---|
③③口口 |③---|
④④口口 |④---|
4
口口①口 |①---|
口口②口 |②---|
口口③口 |③---|
口口④口 |④---|
5
口①口口 |①---|
口②口口 |②---|
口③口口 |③---|
口④口口 |④---|
6
口口①① |①---|
口口②② |②---|
口口③③ |③---|
口口④④ |④---|
7
①①口口 |①---|
②②口口 |②---|
③③口口 |③---|
④④口口 |④---|
8
口口①口 |①---|
口②口口 |②---|
口口③口 |③---|
口④口口 |④---|
9
口口口① |①---|
②口口口 |②---|
口口口③ |③---|
④口口口 |④---|
10
口口口④ |①---|
口口③口 |②---|
口口口② |③---|
口口①口 |④---|
11
④口口口 |①---|
口③口口 |②---|
②口口口 |③---|
口①口口 |④---|
12
口口④口 |①---|
口口口③ |②---|
口口②口 |③---|
口口口① |④---|
13
口④口口 |①---|
③口口口 |②---|
口②口口 |③---|
①口口口 |④---|
14
口口口口 |①---|
口口①① |----|
②②口口 |②---|
口口口口 |----|
15
口口口口 |①---|
①①口口 |----|
口口②② |②---|
口口口口 |----|
16
口口口口 |①---|
口②①口 |--②-|
口口③口 |----|
口口口口 |③---|
17
口口口口 |--①-|
口口②口 |----|
口①口口 |②---|
口口口口 |----|
18
①口口口 |①---|
口②口口 |②---|
口口③口 |③---|
口口口④ |④---|
19
口口口口 |①---|
口口口口 |----|
口口口口 |----|
①①口口 |----|
20
口口口口 |①---|
口口②口 |----|
口口口口 |②---|
口口①口 |----|
21
口口口口 |①---|
口②口口 |----|
口口口口 |②---|
口①口口 |----|
22
口口口口 |①---|
口口②口 |----|
口口口口 |②---|
口口①口 |----|
23
口口口口 |①---|
口②口口 |----|
口口口口 |②---|
口①口口 |----|
24
口口口① |①---|
口口②口 |②---|
口③口口 |③---|
④口口口 |④---|
25
口口口口 |①---|
口口③口 |----|
口②口口 |②---|
口①口口 |③---|
26
①口口口 |①---|
口②口口 |②---|
口口③口 |③---|
口口口④ |④---|
27
口口口口 |①---|
口②②口 |----|
口③③口 |②--③|
口口①口 |----|
28
①口口① |①---|
口口②口 |②---|
口③口口 |③---|
④口口口 |④---|
29
口口口口 |①---|
口口③口 |----|
口②口口 |②---|
口①口口 |③---|
30
①口口口 |①---|
口②口口 |②---|
口口③口 |③---|
口口口④ |④---|
31
口口口口 |①---|
口②②口 |----|
口③③口 |②--③|
口口①口 |----|
32
①口口① |①---|
口口②口 |②---|
口③④口 |③---|
口口口口 |④---|
33
口口口口 |①---|
口①②口 |②---|
口③④口 |③---|
口口口口 |④---|
34
①口口口 |①---|
②口口口 |②---|
③口口口 |③---|
④口口口 |④---|
35
口口口① |①---|
口口口② |②---|
口口口③ |③---|
口口口④ |④---|
36
口口口② |①---|
口口口口 |----|
口①①口 |②---|
口口口口 |----|
37
口①口口 |①---|
口口②口 |②---|
口口口③ |③---|
口口口口 |----|
38
口口口口 |①---|
口口口口 |----|
口①②口 |②---|
口口口口 |----|
39
①口口口 |①---|
口②口口 |②---|
口口③口 |③---|
口口口口 |----|
40
口口口口 |①---|
口口口口 |----|
口口口口 |②---|
口①②口 |----|
41
口口口口 |①---|
口①口口 |----|
口口②口 |②---|
口口口口 |----|
42
口②口① |①---|
口口口口 |----|
口口口口 |②---|
口口口口 |----|
43
口口口口 |①---|
口④①口 |②---|
口②③口 |③---|
口口口口 |④---|
44
口口①① |①---|
口口②② |----|
口口口口 |②---|
口口口口 |----|
45
口口口口 |①---|
口③③口 |②---|
口②②口 |③---|
口①①口 |----|
46
①①口口 |①---|
②②口口 |----|
口口口口 |②---|
口口口口 |----|
47
口口口口 |①---|
口③③口 |②---|
口②②口 |③---|
口①①口 |----|
48
②口口① |①---|
④口口③ |②---|
口口口口 |③---|
口口口口 |④---|
49
口口口口 |①---|
口口口口 |②---|
②口口① |③---|
④口口③ |④---|
50
口④④口 |①---|
口③③口 |②---|
口②②口 |③---|
口①①口 |④---|
51
②口口② |①---|
口口口口 |----|
口口口口 |②---|
①口口① |----|
52
口口口口 |①---|
口②②口 |----|
口①①口 |②---|
口口口口 |----|
53
口口④口 |①---|
③口口口 |②---|
口口口② |③---|
口①口口 |④---|
54
口口口口 |①---|
口口口口 |----|
口①①口 |----|
口口口口 |----|
55
口口口口 |①---|
①①④口 |②---|
②②口口 |③---|
口口③口 |--④-|
56
①①口② |----|
口口口口 |①---|
口口口③ |②---|
口口口口 |--③-|
57
口口口口 |----|
口①口口 |----|
口①口口 |①---|
口口口口 |----|
58
口口口④ |①---|
口口③口 |②---|
口口口② |③---|
口口①口 |④---|
59
口口口口 |①---|
①①④口 |②---|
②②口口 |③---|
口口③口 |--④-|
60
①①口② |----|
口口口口 |①---|
口口口③ |②---|
口口口口 |--③-|
61
口口口口 |----|
口口口口 |----|
口口口口 |①---|
①①口口 |----|
62
口口口口 |①---|
口②①口 |②---|
口④③口 |③---|
口口口口 |④---|
63
口口口口 |①---|
口②口口 |----|
口口口口 |----|
口口①口 |②---|
64
口口①口 |①---|
口口②口 |----|
口口口口 |----|
口口口口 |②---|
65
口①口口 |①---|
口口口口 |----|
口口口口 |----|
口口口口 |----|
66
口口口④ |①---|
口口③口 |②---|
口②口口 |③---|
①口口口 |④---|
67
①①口口 |①---|
口口口口 |----|
口口口口 |②---|
口口②② |----|
68
口口口口 |①---|
口①①口 |②---|
口②②口 |----|
口口口口 |----|
69
口④口口 |①---|
③口口口 |②---|
②口口口 |③---|
口①口口 |④---|
70
口口①口 |①---|
口口口② |②---|
口口口③ |③---|
口口④口 |④---|
71
口①口口 |①---|
②口口口 |②---|
③口口口 |③---|
口④口口 |④---|
72
口口④口 |①---|
口口口③ |②---|
口口口② |③---|
口口①口 |④---|
73
口④口口 |①---|
③口口口 |②---|
②口口口 |③---|
口①口口 |④---|
74
口口①口 |①---|
口口口② |②---|
口口口③ |③---|
口口④口 |④---|
75
口口口口 |①---|
①①②② |----|
口口口口 |②---|
口口口口 |----|
76
口口④口 |①---|
口③口口 |②---|
口口②口 |③---|
口①口口 |④---|
77
①口口口 |①---|
口②口口 |----|
口口口口 |②---|
口口口口 |----|
78
口口口口 |①---|
口口口口 |----|
口口①口 |②---|
口口口② |----|
79
口口口① |①---|
口口②口 |----|
口口口口 |②---|
口口口口 |--(135)--|
80
口口口口 |(140)①-(125)--|
口口口口 |(130)--(115)--|
口①口口 |(120)②-(105)--|
②口口口 |(90)--(85)--|
81
口口口口 |(95)----|
口口①口 |----|
口口口口 |①---|
口口口口 |----|

accuracy: 100%
最終更新:2024年08月11日 08:04