アットウィキロゴ
Fairy Fair
ぺのれり

ADVANCED

Level: 7
BPM: 157
Notes: 561

1
口口口口 |(157)----|
口口口口 |----|
口口口口 |----|
口口口口 |----|
2
口⑤④口 |①-②-|
⑥口口③ |③-④-|
⑦口口② |⑤-⑥-|
口⑧①口 |⑦-⑧-|
3
口⑤④口 |①-②-|
⑥口口③ |③-④-|
⑦口口② |⑤-⑥-|
口口①口 |⑦---|
4
口口口口 |①---|
口④①口 |②---|
口②③口 |③---|
口口口口 |④---|
5
口口口口 |①---|
口④①口 |②---|
口②③口 |③---|
口口口口 |④---|
6
口⑤④口 |①-②-|
⑥口口③ |③-④-|
⑦口口② |⑤-⑥-|
口⑧①口 |⑦-⑧-|
7
口⑤④口 |①-②-|
⑥口口③ |③-④-|
⑦口口② |⑤-⑥-|
口口①口 |⑦---|
8
口口口口 |①-②-|
口④①⑦ |③-④-|
口⑤②⑧ |⑤-⑥-|
口⑥③口 |⑦-⑧-|
9
口口口口 |①-②-|
②口⑤口 |③-④-|
③口⑥口 |⑤-⑥-|
④口⑦① |⑦---|
10
④口口口 |--①-|
口口口⑤ |②-③-|
①②③口 |④-⑤-|
⑥口口⑦ |⑥-⑦-|
11
口口⑤口 |①-②-|
③②①⑥ |③-④-|
口口口⑦ |⑤-⑥-|
口⑧④口 |⑦-⑧-|
12
④口口口 |--①-|
口口口⑤ |②-③-|
①②③口 |④-⑤-|
⑥口口⑦ |⑥-⑦-|
13
口③口口 |①-②-|
口②④④ |③---|
口①口口 |④---|
口⑤⑥口 |⑤-⑥-|
14
①口口② |①---|
口③口口 |②---|
口口④口 |③-④-|
⑤口口口 |--⑤-|
15
⑧口口① |①-②-|
口⑦②口 |③-④-|
⑥口口③ |⑤-⑥-|
口⑤④口 |⑦-⑧-|
16
口口口口 |①---|
②口③① |--②-|
口②①③ |----|
口口口口 |③---|
17
口口口口 |--①-|
口①④口 |----|
①③口口 |②---|
口②②口 |③-④-|
18
①口口⑤ |①-②-|
⑥口口② |③-④-|
③口口⑦ |⑤-⑥-|
⑧口口④ |⑦-⑧-|
19
②③④口 |①---|
口口口口 |②---|
口①①口 |③---|
口口口口 |④---|
20
口口口口 |①---|
口口④口 |----|
口口③口 |②--③|
①口②口 |--④-|
21
口口口① |----|
口④口口 |①---|
口③口口 |②--③|
口②口口 |--④-|
22
口口口口 |①---|
口口④① |----|
口口③口 |②--③|
口口②口 |--④-|
23
口口口① |----|
口④口口 |①---|
口③口口 |②--③|
口②②口 |--④-|
24
①②③④ |①-②-|
口⑦口口 |③-④-|
口⑤⑥口 |⑤-⑥-|
口口⑧口 |⑦-⑧-|
25
口口口口 |----|
④口①① |----|
②口口口 |①-②-|
口口口③ |③-④-|
26
④③②① |①-②-|
口口⑦口 |③-④-|
口⑥⑤口 |⑤-⑥-|
口⑧口口 |⑦-⑧-|
27
口口口口 |①-②-|
口②口口 |----|
口口口口
口口①口

③⑤⑤③
口口口口
口口口口 |③--④|
口④④口 |--⑤-|
28
口口口口 |①---|
③②②⑥ |②---|
口④⑤口 |③-④-|
①口口① |⑤-⑥-|
29
⑦⑥⑤⑦ |①-②-|
口②③口 |③-④-|
口⑤⑥口 |⑤--⑥|
①口口④ |--⑦-|
30
⑦口口口 |①-②-|
⑥③④口 |③-④-|
⑤口口口 |⑤--⑥|
口①②口 |--⑦-|
31
口⑤④⑥ |--①-|
口口口口 |②-③-|
口③②① |④--⑤|
⑥④⑤口 |--⑥-|
32
①③口口 |①--②|
⑦⑥⑤④ |--③-|
口②口口 |④-⑤-|
口口口① |⑥-⑦-|
33
④口⑤① |①-②-|
口⑥口口 |③-④-|
口③②⑦ |⑤-⑥-|
⑧口口口 |⑦-⑧-|
34
口口②② |①--②|
③⑦④口 |--③-|
口⑤⑥口 |④-⑤-|
口口①① |⑥-⑦-|
35
④口⑤① |①-②③|
口⑥③口 |--④-|
口口⑦口 |⑤-⑥-|
②⑧口口 |⑦-⑧-|
36
③口口② |①---|
口④口口 |②---|
⑤口口口 |③-④-|
口⑥口① |⑤-⑥-|
37
口口口口 |①-②-|
③⑤④口 |③--④|
口②⑦口 |⑤---|
⑥口①口 |⑥-⑦-|
38
口①⑧口 |①-②-|
口⑦口② |③-④-|
③口口⑥ |⑤-⑥-|
口⑤口④ |⑦-⑧-|
39
口口口口 |①-②-|
①口⑤口 |③-④-|
口②⑦口 |⑤---|
④口③⑥ |⑥-⑦-|
40
口口口口 |①-②-|
⑦①④② |③-④-|
口口⑧⑥ |⑤-⑥-|
③⑤口口 |⑦--⑧|
41
⑤口口② |①---|
口口③口 |②-③-|
口①口④ |④---|
口口口口 |⑤---|
42
口⑥口口 |①---|
口②⑤口 |--②-|
口④口口 |③-④-|
口口③① |⑤-⑥-|
43
口口⑦① |①-②-|
②⑧口口 |③-④-|
口⑥口③ |⑤-⑥-|
④口⑤口 |⑦--⑧|
44
③口口② |①---|
口④①口 |②---|
⑤口口口 |③-④-|
口⑥口口 |⑤-⑥-|
45
口口口口 |①-②-|
③⑤④口 |③--④|
口②⑦口 |⑤---|
⑥口①口 |⑥-⑦-|
46
口①⑧口 |①-②-|
口⑦口② |③-④-|
③口口⑥ |⑤-⑥-|
口⑤口④ |⑦-⑧-|
47
口口口口 |①-②-|
①口⑤口 |③-④-|
口②⑦口 |⑤---|
④口③⑥ |⑥-⑦-|
48
口③②口 |①--②|
⑦①④口 |③-④-|
口口⑧⑥ |⑤-⑥-|
口⑤口口 |⑦--⑧|
49
口口口② |①---|
⑤口③口 |②-③-|
口①口④ |④---|
口口口口 |⑤---|
50
④③②① |①②③④|
⑧⑦⑥⑤ |⑤⑥⑦⑧|
⑫⑪⑩⑨ |⑨⑩⑪⑫|
⑯⑮⑭⑬ |⑬⑭⑮⑯|
51
②②③③ |①-②-|
口口①口 |③-④-|
口④口口
口口口口

⑧口口口
⑧口口口
口口⑦口 |⑤-⑥-|
⑥⑥⑤⑤ |⑦-⑧-|
52
口口口① |①-②-|
口②口① |③-④-|
④口口③
④口口③

口⑥⑦口
⑥口口⑦
口⑧⑤口 |⑤-⑥-|
口口口口 |⑦-⑧-|
53
④口口① |①-②-|
口③②口 |③-④-|
口⑦⑥口 |⑤-⑥-|
⑧口口⑤ |⑦-⑧-|
54
③③②② |①---|
①①①① |----|
②口口③ |②---|
口②③口 |③---|
55
口口②口 |①---|
①⑥口② |②---|
口③④口 |③④-⑤|
①⑤⑦⑦ |-⑥⑦-|
56
口①口口 |----|
①口⑤口 |①---|
口③②口 |②③-④|
⑥⑥④口 |-⑤⑥-|
57
②③④口 |--①-|
口口⑦口 |②③④-|
口⑥口口 |--⑤-|
⑤口口① |⑥-⑦-|
58
口口口① |①-②-|
②⑧口⑦ |③-④-|
⑥口口③ |⑤-⑥-|
④口口⑤ |⑦--⑧|
59
口②口口 |①---|
②口①口 |②---|
口口口口
口口口口

口口口口
口口⑥口
口④③口 |③④-⑤|
⑦⑦⑤口 |-⑥⑦-|
60
口口①口 |----|
口⑤口① |①---|
口②③口 |②③-④|
口④⑥⑥ |-⑤⑥-|
61
口口口④ |--①-|
③⑦口口 |②-③-|
口⑥口② |④-⑤-|
①⑤口口 |⑥-⑦-|
62
口口①口 |①-②-|
②口口⑦ |③-④-|
⑥⑧口③ |⑤-⑥-|
④口口⑤ |⑦--⑧|
63
④口口口 |①---|
③口口口 |----|
②口①口 |--②-|
口口口口 |③-④-|
64
口口口③ |----|
口口口② |----|
口口口① |--①-|
口口口口 |②-③-|
65
口口口口 |----|
口③口口 |----|
口口②口 |--①-|
口①口口 |②-③-|
66
口口口① |①-②-|
②口口口 |③-④-|
口口口③
④口口口

口口⑥⑥
口口口口
口口口口 |⑤---|
口口⑤⑤ |⑥---|
67
⑤①口口 |①-②-|
口口②⑥ |③-④-|
⑦③口口 |⑤-⑥-|
口口④⑧ |⑦-⑧-|
68
口口口口 |①---|
③②①口 |②---|
口①②④ |--③-|
⑤口口口 |④-⑤-|
69
口⑤④口 |①-②-|
⑥口口③ |③-④-|
口⑦②口 |⑤-⑥-|
⑧口口① |⑦-⑧-|
70
口⑦口④ |①-②-|
口口③口 |③-④-|
口口⑥② |⑤-⑥-|
口⑤①口 |⑦---|
71
口口口口 |①-②-|
④⑥②⑧ |③-④-|
⑤③⑦① |⑤-⑥-|
口口口口 |⑦-⑧-|
72
口口口口 |①-②-|
④口②口 |③-④-|
口口口口
口③口①

口⑥口⑤
口口⑦口
口⑦口口 |⑤--⑥|
⑤口⑥口 |--⑦-|
73
口⑤④口 |①-②-|
⑥口口③ |③-④-|
口⑦②口 |⑤-⑥-|
⑧口口① |⑦-⑧-|
74
⑦⑦口④ |①-②-|
口口③口 |③-④-|
口口⑥② |⑤-⑥-|
口⑤①口 |⑦---|
75
口口口② |①---|
口⑤口口 |--②-|
口口④口 |③-④-|
①③口⑥ |⑤-⑥-|
76
⑤口口④ |①-②-|
口⑥③口 |③-④-|
口②⑦口 |⑤-⑥-|
①口口⑧ |⑦-⑧-|
77
口口口口 |①---|
口口②口 |----|
口①口口 |②---|
口口口口 |----|
78
口口口口 |①---|
口①口口 |----|
口口②口 |②---|
口口口口 |----|
79
口口口口 |①---|
口口②口 |----|
口①口口 |②---|
口口口口 |--(135)--|
80
口口口口 |(140)①-(125)--|
口①口口 |(130)--(115)--|
口口②口 |(120)②-(105)--|
口口口口 |(90)--(85)--|
81
口口口口 |(95)----|
口口口口 |----|
口①口口 |①---|
口口口口 |----|

accuracy: 100%
最終更新:2024年08月11日 08:04