アットウィキロゴ
Fairy Fair
ぺのれり

EXTREME

Level: 9.7
BPM: 157
Notes: 875

1
口口口口 |(157)----|
口口口口 |----|
口口口口 |----|
口口口口 |----|
2
口口①口 |①-②③|
①⑤④口 |④-⑤-|
口③口①
②①口口

⑦口口⑥
口口口口
口口口口 |⑥-⑦-|
⑨口口⑧ |⑧-⑨-|
3
⑥口口⑧ |①-②③|
口②口口 |④-⑤-|
口③⑦⑤ |⑥-⑦-|
口④①口 |⑧---|
4
口④⑤口 |①-②-|
③口口⑥ |③-④-|
口②⑦口 |⑤-⑥-|
①口口⑧ |⑦-⑧-|
5
⑤口口口 |①-②-|
口①④⑥ |③-④-|
⑦口口口 |⑤-⑥-|
口③②⑧ |⑦-⑧-|
6
口口①口 |①-②③|
①⑤④口 |④-⑤-|
口③口①
②①口口

⑦口口⑥
口口口口
口口口口 |⑥-⑦-|
⑨口口⑧ |⑧-⑨-|
7
⑥口口⑧ |①-②③|
口②口⑥ |④-⑤-|
⑥③⑦⑤ |⑥-⑦-|
口④①⑥ |⑧---|
8
口口口口 |①-②③|
口②口⑤ |④-⑤-|
口③口口
①④口口

⑨口口口
口⑩⑥口
口⑪⑦口 |⑥⑦⑧-|
口口⑧口 |⑨-⑩⑪|
9
口口口② |①-②-|
口口③口 |③④⑤-|
口口④口
口①⑤口

⑫口口⑬
⑩口口⑪
⑧口口⑨ |⑥⑦⑧⑨|
⑥口口⑦ |⑩⑪⑫⑬|
10
口①④口 |--①-|
口②口⑨ |②-③-|
口③口口 |④--⑤⑥⑦|
⑧⑦⑥⑤ |⑧-⑨-|
11
口①口② |①-②-|
口⑦⑩口 |③④⑤⑥--|
③④⑤⑥ |⑦-⑧-|
口⑨⑧口 |⑨-⑩-|
12
口①④口 |--①-|
口②口口 |②-③-|
口③口⑨ |④--⑤⑥⑦|
⑧⑦⑥⑤ |⑧-⑨-|
13
③口口⑨ |①-②-|
⑧口④② |③-----④⑤|
①⑤口口 |⑥-⑦-|
⑥口口⑦ |⑧-⑨-|
14
①⑧③口 |①-②-|
⑧②⑥③ |③-④⑤|
①口⑤口 |⑥-⑦-|
口⑦④⑨ |⑧-⑨-|
15
⑩口③① |①-②-|
口⑨④口 |③④⑤⑥--|
⑧②⑤口 |⑦-⑧-|
口⑦⑥口 |⑨-⑩-|
16
口④①口 |①---|
④口⑦① |②③④-|
口⑤②⑦ |--⑤⑥|
口⑥③口 |⑦---|
17
口口口口 |①②③-|
口③口口 |--④⑤|
③④①口
口⑤②口

⑦口口⑧
口口⑥⑫
⑪口口⑥ |⑥-⑦⑧|
⑨口口⑩ |⑨⑩⑪⑫|
18
口①口口 |①---|
口③②口 |②③④⑤|
口④⑤口
口口口口

口⑩⑥口
⑦口口⑬
⑪口口⑨ |⑥⑦⑧⑨|
口⑧⑫口 |⑩⑪⑫⑬|
19
口④③② |①---|
口①①口 |②---|
口口口口 |③---|
口口口口 |④---|
20
口⑦⑥⑤ |①-②-|
口口口口 |③-④-|
口口④① |⑤--⑥|
口口②③ |--⑦-|
21
口⑥⑤④ |--①-|
口口口口 |②-③-|
口口③口 |④--⑤|
口口①② |--⑥-|
22
口⑦⑥⑤ |①-②-|
口口口口 |③-④-|
口口④① |⑤--⑥|
口口②③ |--⑦-|
23
⑤口口④ |--①-|
口口⑥口 |②-③-|
口⑥③⑤ |④--⑤|
④口①② |--⑥-|
24
口①口⑦ |①-②③|
②③⑩口 |-④-⑤|
口⑨⑥⑤ |⑥--⑦|
⑧口①④ |-⑧⑨⑩|
25
②⑥口⑤ |--①-|
口口⑦口 |-②-③|
口④③⑧ |-④-⑤|
⑤③④① |-⑥⑦⑧|
26
口口口口 |①②-③|
①②口口 |④-⑤⑥|
⑤⑥口口
口口④③

口⑪口口
⑧口口口
口口口口 |-⑦-⑧|
⑦⑨口⑩ |-⑨⑩⑪|
27
②口口③ |①-②③|
口⑧⑦① |-④⑤⑥⑦⑧|
口⑥⑤口
④口口口

⑪⑩⑨⑪
⑨口口⑩
⑩口口⑨ |⑨--⑩|
口⑨⑩口 |--⑪-|
28
口口口口 |①---|
②口②口 |②---|
口口口口
①口口①

⑧③⑦④
口口口口
口口口口 |③④⑤⑥|
⑦⑤口⑥ |-⑦-⑧|
29
口口口口 |-①②③④⑤|
④③②① |⑥⑦⑧⑨⑩⑪|
⑧⑦⑥⑤
口⑪⑩⑨

⑬⑬⑫⑫
口⑭⑭口
口口口口 |⑫--⑬|
口口口口 |--⑭-|
30
口④口⑤ |①-②-|
③口口⑥ |③-④-|
口②口⑦ |⑤--⑥|
①口口口 |--⑦-|
31
①口口口 |--①-|
口口②口 |②-③-|
口③口口
口口口口

⑥④⑤⑥
⑤口口④
④口口⑤ |④--⑤|
口⑤④口 |--⑥-|
32
口③口口 |①--②|
⑥⑦口口 |--③-|
口②⑤④ |④⑤-⑥|
①⑧⑧① |⑦-⑧-|
33
⑤口③① |①-②③|
口口口口 |-④-⑤|
②口口口
④口口口

口口口口
⑨⑧⑦⑥
⑬⑫⑪⑩ |-⑥⑦⑧⑨⑩|
口⑯⑮⑭ |⑪⑫⑬⑭⑮⑯|
34
②①②① |①--②|
③口口③ |--③-|
口口口口
口口口口

口口口⑦
口⑤⑤口
口口口口 |④⑤--|
④⑥口口 |⑥-⑦-|
35
口①③口 |①-②③|
口④④口 |--④-|
①口②③
口口口口

⑤⑦⑧口
口口口⑥
⑦⑤口⑧ |⑤-⑥-|
口口⑥口 |⑦-⑧-|
36
③口口② |①---|
口④②口 |②---|
口口⑤口 |③-④-|
①口口⑥ |⑤-⑥-|
37
口③口④ |①-②-|
口口②口 |③--④|
口口口口
口①口口

口口口口
口⑦⑧口
口口口口 |⑤---|
⑤口口⑥ |⑥-⑦⑧|
38
②口口口 |①--②③④|
③口口① |⑤-⑥-|
④口口口
⑤口⑥口

口⑧口⑨
口口口⑩
口口口⑪ |⑦-⑧-|
口⑦口⑫ |⑨⑩⑪⑫--|
39
口口②口 |①-②-|
③口口⑧ |③④⑤-|
口①④口 |⑥---|
⑤⑦⑥口 |⑦-⑧-|
40
①口口口 |①---②③|
口口②口 |④-⑤-|
口③口口
④口口⑤

口⑧口⑨
口口口⑦
口口口口 |⑥-⑦-|
口⑥口口 |⑧--⑨|
41
口口口口 |①---|
口口②口 |②-③-|
口③口②
①口③口

口⑧口口
口④⑨⑦
④口⑥口 |④---⑤⑥|
口⑤口口 |⑦---⑧⑨|
42
②口⑤口 |①---|
口口⑥口 |--②-|
口④⑦① |③-④-|
口口⑧③ |⑤⑥⑦⑧--|
43
口口口④ |①---②③|
①口口③ |④-⑤-|
口口口②
⑤口口口

口口⑧口
口⑦⑥⑨
口口口口 |⑥-⑦-|
口口口口 |⑧--⑨|
44
①②口② |①---|
口口口口 |②---|
口口口口
口口口①

口口③口
③④⑤口
⑤⑥口④ |③-④-|
口口口⑥ |⑤-⑥-|
45
③③④④ |①-②-|
口口口② |③--④|
口口②口
①①口口

口口口口
⑤口口口
⑤⑧口⑥ |⑤---|
口⑦口⑥ |⑥-⑦⑧|
46
⑥口②口 |①--②③④|
口①③口 |⑤-⑥-|
口口④口
口口⑤口

口⑨口⑧
口⑩口口
口⑪口口 |⑦-⑧-|
⑦⑫口口 |⑨⑩⑪⑫--|
47
口口②口 |①-②-|
③口⑧① |③④⑤-|
口⑦④口 |⑥---|
⑤口⑥① |⑦-⑧-|
48
①口⑧① |①--②|
③口⑦② |③-④-|
⑤口口⑥ |⑤-⑥-|
⑦⑤④③ |⑦--⑧|
49
①⑧⑦④ |①---|
②⑥口③ |②-③-|
④口①⑤ |④-⑤⑥|
⑩口②⑨ |⑦⑧⑨⑩|
50
⑥口口⑤ |①②③④|
口⑧⑦口 |⑤⑥⑦⑧|
口②①口
口④③口

口⑩⑨口
⑭口口⑬
口⑯⑮口 |⑨⑩⑪⑫|
⑫口口⑪ |⑬⑭⑮⑯|
51
②⑧口④ |①-②-|
口⑤④口 |③-④-|
③口⑦① |⑤-⑥-|
口⑥①⑦ |⑦-⑧-|
52
口口②⑧ |①-②-|
③⑥口② |③-④-|
口①口⑤ |⑤-⑥-|
④⑦⑤口 |⑦-⑧-|
53
①口⑥口 |①-②③|
口⑧②口 |④-⑤-|
口③⑨口 |⑥-⑦-|
④口⑦⑤ |⑧-⑨-|
54
口口口口 |①-②③|
⑦口口⑥ |④⑤⑥⑦|
⑤口口④
③①口②

口口口⑧
口⑨口口
口口⑩口 |⑧---⑨⑩|
口⑪口口 |⑪---|
55
①口口② |①---|
口口①② |②---|
②①口口
②口口①

口③⑦口
⑦⑤口口
口⑥⑤⑦ |③④-⑤|
口⑦④口 |-⑥⑦-|
56
①⑥③① |----|
口口④⑥ |①---|
⑥④⑤口 |②③-④|
②口⑥口 |-⑤⑥-|
57
①⑦口① |--①-|
④④⑥口 |②③④-|
口口口③ |--⑤-|
口②口⑤ |⑥-⑦-|
58
②口⑩① |①--②③④|
③⑨口口 |⑤-⑥-|
④口⑧口 |⑦-⑧-|
⑤⑦⑥口 |⑨--⑩|
59
①口口② |①---|
口口①② |②---|
②①口口
②口口①

口③⑦口
⑦⑤口口
口⑥⑤⑦ |③④-⑤|
口⑦④口 |-⑥⑦-|
60
①⑥③① |----|
口口④⑥ |①---|
⑥④⑤口 |②③-④|
②口⑥口 |-⑤⑥-|
61
口⑪⑥④ |-①②③|
③⑦⑩口 |④⑤⑥⑦|
口口⑧② |⑧-⑨-|
⑤①口⑨ |⑩-⑪-|
62
②口⑩① |①--②③④|
③⑨口口 |⑤-⑥-|
④口⑧口 |⑦-⑧-|
⑤⑦⑥口 |⑨--⑩|
63
①口口口 |①-②③|
⑥口①⑦ |④⑤⑥⑦|
④①⑤口
②③口①

⑪⑧口⑨
口口⑩口
口口口口 |⑧-⑨-|
口口口口 |⑩-⑪-|
64
⑧口⑦⑩ |--①②|
⑥⑨口⑤ |③④⑤⑥|
口④口③ |⑦-⑧-|
口口②① |⑨-⑩-|
65
⑭口口⑬ |--①②|
⑤⑫⑪⑥ |③④⑤⑥|
③⑩④⑨ |⑦⑧⑨⑩|
①②⑧⑦ |⑪⑫⑬⑭|
66
口⑦②⑧ |①-②-|
口口口⑧ |③④⑤⑥--|
口⑦①口 |⑦---|
③④⑤⑥ |⑧---|
67
②口①口 |①--②③④|
①③口口 |⑤-⑥-|
口口④①
⑥①口⑤

口⑦口⑫
⑪口⑧⑦
⑦口口⑩ |⑦-⑧-|
口⑨⑦口 |⑨⑩⑪⑫|
67
①口②⑥ |①---|
口①⑧② |②---③④|
⑦③①口 |⑤-⑥-|
②⑤④① |⑦-⑧-|
69
①口⑤⑥ |①-②③|
④口⑦③ |④-⑤-|
⑥⑧②口 |⑥-⑦-|
⑧口口⑨ |⑧-⑨-|
70
口①⑧⑦ |①-②③|
口④⑥② |④-⑤-|
口⑥③⑤ |⑥-⑦-|
口⑧①口 |⑧---|
71
①口口口 |①-②-|
③口口口 |③-④-|
口口④③
口口②①

口口⑥⑤
口口口⑦
⑤口口口 |⑤-⑥-|
⑦口⑧口 |⑦-⑧-|
72
口①口③ |①-②-|
口③④口 |③-④-|
口口②口
口口口①

口⑥⑤口
⑤口口⑥
⑥口口⑤ |⑤--⑥|
⑦⑤⑥⑦ |--⑦-|
73
①口⑥① |①-②③|
④口⑤⑦ |④-⑤-|
⑥口②③ |⑥-⑦-|
⑧口⑧⑨ |⑧-⑨-|
74
口①口② |①-②③|
口④③口 |④-⑤-|
口口①⑤
口口口口

⑨⑨⑥口
口口口⑧
口⑥⑧口 |⑥-⑦-|
口⑧口⑦ |⑧-⑨-|
75
口口②② |①---|
口③口口 |--②-|
⑤⑥⑦⑧ |③-④-|
②口①④ |⑤⑥⑦⑧--|
76
②⑧⑦口 |①-②-|
④⑥口⑤ |③-④-|
口口口口 |⑤-⑥-|
口①③口 |⑦-⑧-|
77
口口口口 |①-②-|
口口④③ |③-④-|
口口②口
口口口①

口⑥口⑤
口⑦口口
口⑧口口 |⑤--⑥⑦⑧|
口⑨口⑩ |⑨-⑩-|
78
③口②口 |①-②-|
④口⑨⑦ |③④⑤⑥--|
⑤口①口 |⑦-⑧-|
⑥口⑧⑩ |⑨-⑩-|
79
③口口② |①-②-|
口口口口 |③-④-|
口①口④
口口口口

口⑥⑤口
口⑦口⑩
口⑧口口 |⑤--⑥⑦⑧|
口⑨口口 |⑨-(135)⑩-|
80
口④口口 |(140)①-(125)②-|
③口⑤口 |(130)③-(115)④⑤|
①口口口
口口口②

口口口⑦
口⑧口口
口口口口 |(120)⑥-(105)⑦-|
口⑥口⑨ |(90)⑧-(85)⑨-|
81
口口口口 |(95)----|
口口口口 |----|
口①口口 |①---|
口口口口 |----|

accuracy: 100%
最終更新:2024年08月11日 08:04