アットウィキロゴ
Pale Garden
Dirty Androids

EXTREME

Level: 9.8
BPM: 160
Notes(hold): 873(132)

1
口口口口 |----|
口口口口 |----|
口口口口 |----|
口口口口 |----|
2
口∨① |①---|
口②口口 |----|
口口②口 |----|
①∧口< |--②-|

口口口②
口口口口
口口口口
②口口口
3
口口口口 |----|
口口口口 |----|
口口口口 |----|
口口口口 |----|
4
口口口口 |①---|
口口① |----|
①口口< |----|
口口口口 |--②-|

口口口口
口①口口
口口①口
口口口口

口口∨口
口②口口
口口②口
口∧口口

口口口口
口口口②
②口口口
口口口口
5
口口口口 |----|
口①口 |----|
口①口< |--①-|
口口口口 |----|

口口口口
口①口口
口口①口
口口口口
6
①口口< |①---|
口口口口 |----|
口口口口 |----|
口口① |--②-|

口口口口
口口①口
口①口口
口口口口

口口口口
口②口
口②口<
口口口口

②口口口
口口口口
口口口口
口口口②
7
口①∨口 |----|
口口口口 |----|
口口口口 |--①-|
口∧①口 |----|

口口口口
口口①口
口①口口
口口口口
8
口口口口 |①---|
口口① |----|
①口口< |----|
口口口口 |--②-|

口∨口口
口口②口
口②口口
口口∧口

口①口口
口口口②
②口口口
口口①口
9
口①口口 |----|
口口口口 |----|
口口口口 |--①-|
口口①口 |----|

口口口口
口口①口
口①口口
口口口口
10
口口①① |①---|
①∨③③ |②---|
口口②② |③---|
∧⑤④④ |④-⑤-|

口口口口
④口口口
口口口口
口口口口
11
口口①① |①---|
口口③③ |②---|
口口②② |③---|
口口④④ |④---|

口口口口
口口口口
口口口口
口④口口
12
①①∨① |①---|
③③口口 |②---|
②②⑤∧ |③---|
④④口口 |④-⑤-|

口口口④
口口口口
口口口口
口口口口
13
①①口口 |①---|
③③>④ |②---|
②②口口 |③-④-|
⑤⑤口口 |⑤-⑥-|

口口口口
口口口⑥
口口③口
口口口口
14
①②①口 |①-②-|
③④③口 |③-④-|
⑤⑦⑥⑤ |⑤-⑥-|
⑦口⑧口 |⑦-⑧-|
15
口①②① |①-②-|
口③④③ |③-④-|
⑤⑥⑦⑤ |⑤-⑥-|
口⑧口⑦ |⑦-⑧-|
16
①②①口 |①-②-|
③④③口 |③-④-|
⑤⑦⑥⑤ |⑤-⑥-|
⑦口⑧口 |⑦-⑧-|
17
口③口① |①-②-③-|
口口②口 |④-⑤-⑥-|
④口⑥口 |⑦⑧⑨⑩|
口⑤口口 |⑪-⑫-|

⑪口⑪口
口⑧口⑦
口⑩口⑨
⑫口⑫口
18
①>① |①---|
口口②口 |②---|
口口口口 |--③④|
口口口口 |⑤⑥⑦-|

⑦口口<
口③口④
⑦口口<
口⑤口⑥

口②口②
口口口口
口口口口
口口口口
19
口②口< |--①-|
①③口口 |②---|
口②口< |③-④-|
口口口口 |--⑤⑥|

口口④<
口口口口
口口④<
口口口口

口口口⑥
口口⑤口
口口口口
口口口口

①③⑤口
口口口口
①③⑤口
口口口口
20
口∨口口 |①②③④|
口口口① |⑤---|
口口口② |⑥-⑦-|
口⑤④③ |⑧-⑨-|

⑥⑦⑧⑨
口口口口
口口口口
口口口口

口口口口
口口口口
口口口口
口8口口
21
④⑤⑥⑦ |--①-|
②③⑧口 |--②③|
口①①口 |④⑤⑥⑦|
口口口口 |⑧---|
22
口口口∨ |①-②③|
口口口① |-④⑤-|
口口口① |⑥⑦⑧⑨|
口口口∧ |⑩⑪⑫-|

⑤⑤口口
⑧⑦⑥口
⑪⑩⑨口
③③<

口口⑫⑫
口口口口
口口口口
口口∧∧

口口口口
口口口②
口口口②
口④④口
23
口①口口 |--①-|
口③②② |②---|
口口口口 |③-④-|
口口∧∧ |--⑤-|

口口口口
口口口口
口⑤④④
口口∧∧

口口①①
口口③③
口口⑤⑤
口口口口
24
①①②口 |①---|
口口口口 |②-③-|
口口口口 |--④-|
∧∧口口 |⑤-⑥-|

口口口口
③③④口
口口口口
∧∧口口

口口口口
口口口口
⑤口口⑥
口口口口

②②口口
④④口口
口口口口
口口口口
25
④③②① |①②③④|
口口口口 |⑤⑥⑦⑧|
口⑥⑤口 |⑨⑩⑪⑫|
口⑧⑦口 |⑬⑭⑮⑯|

口口口口
⑫⑪⑩⑨
⑭口口⑬
⑯口口⑮
26
口口①< |①---|
口②口口 |--②-|
口口①< |--③④|
口口口口 |⑤⑥⑦-|

口口⑦
④口③口
口口⑦
⑥口⑤口

口口②口
口口口口
口口②口
口口口口
27
口②口 |--①-|
口口③① |②---|
口②口 |③-④-|
口口口口 |--⑤⑥|

④口口
口口口口
④口口
口口口口

⑥口口口
口⑤口口
口口口口
口口口口

口⑤③①
口口口口
口⑤③①
口口口口
28
口口∨口 |①②③④|
①口口口 |⑤---|
②口口口 |⑥-⑦-|
③④⑤口 |⑧-⑨-|

⑨⑧⑦⑥
口口口口
口口口口
口口口口

口口口口
口口口口
口口口口
口口9口
29
口口口口 |--①-|
口口口口 |--②-|
①<>① |③-④-|
口口口口 |⑤---|

口口口口
口③口口
口口④口
口⑤口口

口口口口
口口口口
②口口②
口口口口
30
口口口口 |①-②③|
①<③口 |-④⑤-|
∨口∧口 |⑥-⑦⑧|
③>①口 |⑨⑩⑪-|

口口口口
口⑤<口
⑩⑨⑧⑦
口口>⑤

口口⑪⑪
口口口口
口口口口
口口∧∧

口口口口
②⑥④口
口口口口
④口②⑥
31
口①口口 |--①-|
口③②② |②---|
口口口口 |③-④-|
口口∧∧ |--⑤-|

口口口口
口口口口
口⑤④④
口口∧∧

口口①①
口口③③
口口⑤⑤
口口口口
32
①①②口 |①---|
口口口口 |②-③-|
口口口口 |--④-|
∧∧口口 |⑤-⑥-|

口口口口
③③④口
口口口口
∧∧口口

口口口口
口口口口
⑤口口⑥
口口口口

②②口口
④④口口
口口口口
口口口口
33
④③②① |①②③④|
口口口口 |⑤⑥⑦⑧|
口⑥⑤口 |⑨⑩⑪⑫|
口⑧⑦口 |⑬⑭⑮⑯|

口口口口
⑫⑪⑩⑨
⑭口口⑬
⑯口口⑮
34
口①⑤③ |①--②|
④口口⑤ |--③-|
口口②口 |④-⑤-|
口口口口 |--⑥-|

口口口口
∨口口口
⑥口口口
⑥口口
35
口⑤⑤① |--①-|
口口②④ |②-③-|
口③口口 |④-⑤-|
口口口口 |----|

口口口口
口口口口
⑤口口口
口⑤口口
36
口口口口 |①--②|
口②口口 |--③-|
⑤口口④ |④-⑤-|
③⑤①口 |--⑥-|

口口⑥<
口口口⑥
口口口∧
口口口口
37
①④口口 |--①-|
⑤②口口 |②-③-|
口⑥③口 |④-⑤-|
⑦口口口 |⑥-⑦-|

口口⑥口
口口口⑥
口口口口
口口口口
38
口口口口 |①--②|
口口②口 |--③-|
④口口⑤ |④-⑤-|
口①⑤③ |--⑥-|

⑥口口
⑥口口口
∧口口口
口口口口
39
口口口① |--①-|
口口②④ |②-③-|
口③⑤口 |④-⑤-|
⑦⑧口口 |⑥-⑦⑧|

口⑥口口
⑥口口口
口口口口
口口口口
40
④口口② |①--②|
口口口⑤ |--③-|
口③③① |--④-|
口⑤⑤① |--⑤-|
41
口③②口 |--①-|
②①①③ |--②-|
②⑤④③ |--③-|
①⑦⑥口 |④⑤⑥⑦|
42
口③口② |①---|
③①①口 |②-③-|
口口口③ |--④-|
口口口口 |--⑤-|

口口④口
口⑤口④
⑤口⑤口
④⑤口口
43
口口口④ |--①-|
③口口⑤ |②-③-|
口②口⑥ |④-⑤-|
口口①⑦ |⑥-⑦-|
44
②口③口 |①---|
口①①③ |②-③-|
口口口口 |--④-|
口③口口 |--⑤-|

口④口口
④口⑤口
口⑤口⑤
口口⑤④
45
①口③口 |--①②|
口②口口 |③-④⑤|
④口⑥口 |⑥-⑦⑧|
口⑤口口 |⑨-⑩-|

⑩⑦口⑨
⑩口⑧口
口口口口
口口口口
46
口口口口 |①---|
口③口② |②-③-|
③口口① |--④-|
口③①口 |--⑤-|

④⑤口④
⑤口⑤口
口⑤④口
口口口口
47
④口②口 |--①②|
口①口③ |③-④-|
口口口口 |⑤-⑥-|
口口口口 |⑦-⑧-|

口口口∨
口口口口
⑤口⑦口
口⑥口⑧
48
口口∨口 |----|
①口口口 |①-②-|
口②口口 |③-④-|
口口②口 |⑤-⑥-|

口∨④口
口口③⑤
口口⑥口
口⑤口口

口口口口
口口口口
口口口口
口口④①
49
∨口口② |①-②-|
口①③口 |③-④-|
口④口口 |⑤-⑥-|
②口口口 |⑦-⑧-|

口⑥⑦口
⑤口口⑧
口口口口
口口口口

口口口口
口口口口
口口口口
④①口口
50
①口口① |①-②-|
口口②口 |③-④-|
∧口口③ |--⑤-|
口口④口 |--⑥-|

口口⑤⑥
口口口⑤
⑥口口
口口口口

⑥口口口
口口口口
口口口口
口口口口
51
口口⑤口 |--①-|
口①口④ |--②-|
口口③② |--③-|
口口口口 |④-⑤-|

口口口口
口口口口
口④口口
口口口口
52
口①口① |①-②-|
口口②口 |③-④-|
口口口③ |--⑤-|
口∧④口 |--⑥-|

口口口⑥
∨口口⑤
⑥口⑤口
口口口口

口⑥口口
口口口口
口口口口
口口口口
53
③口③口 |--①-|
∧③①口 |--②-|
口②口口 |--③-|
口口口口 |----|

口口口口
口口口口
③口口口
口口口口
54
口①口① |①-②-|
口口②口 |③-④-|
口③口口 |--⑤-|
④口口∧ |--⑥-|

①口口口
口口口口
口口口口
口口口口

⑥口口口
⑤⑤口口
口口⑥<
口口口口

口口口⑥
口口口口
口口口口
口口口口
55
口⑤③< |--①-|
④口①口 |--②-|
②③口口 |--③-|
口口口口 |④-⑤-|

口口口口
口口口口
口口③口
口口口口
56
①口口口 |①-②-|
口②口① |③-④-|
③口口口 |--⑤-|
口④口∧ |--⑥-|

口⑤口口
⑤口⑥口
口口口口
口口口口

口口∨口
口口口口
口口口口
口口⑥口

口口①口
口口口⑥
口口口口
口口口口
57
口口口口 |--①-|
口⑤④③ |--②-|
口①口口 |--③-|
②口口口 |④-⑤-|

口口口口
口口口口
口口口口
口口③口
58
口口①① |①---|
①∨③③ |②---|
口口②② |③---|
∧⑤④④ |④-⑤-|

口口口口
④口口口
口口口口
口口口口
59
口口①① |①---|
口口③③ |②---|
口口②② |③---|
口口④④ |④---|

口口口口
口口口口
口口口口
口④口口
60
①①∨① |①---|
③③口口 |②---|
②②⑤∧ |③---|
④④口口 |④-⑤-|

口口口④
口口口口
口口口口
口口口口
61
①①口口 |①---|
③③>④ |②---|
②②口口 |③-④-|
⑤⑤口口 |⑤-⑥-|

口口口口
口口口⑥
口口③口
口口口口
62
①②①口 |①-②-|
③④③口 |③-④-|
⑤⑦⑥⑤ |⑤-⑥-|
⑦口⑧口 |⑦-⑧-|
63
口①②① |①-②-|
口③④③ |③-④-|
⑤⑥⑦⑤ |⑤-⑥-|
口⑧口⑦ |⑦-⑧-|
64
①②①口 |①-②-|
③④③口 |③-④-|
⑤⑦⑥⑤ |⑤-⑥-|
⑦口⑧口 |⑦-⑧-|
65
③①①② |①-②-|
③④④② |--③-|
口⑤⑤口 |--④-|
口⑥⑥口 |⑤-⑥-|
66
②口①< |①---|
口口③∨ |②-③-|
口口口① |--④⑤|
口口口口 |⑥⑦⑧-|

口口口⑧
④⑤∨∧
⑥⑦⑧口
口口口口

口口②口
口口口口
口口口②
口口口口
67
①口②口 |--①-|
口口∧∨ |②---|
口口口② |③-④-|
口口口口 |⑤-⑥-|

口口口口
口口④口
③⑤口口
口口⑥口

口口③①
口口口口
口口①③
口口口口
68
①<口口 |----|
①口口 |①---|
口口①< |②-③-|
口口>① |--④-|

口③③口
口口口口
口口口口
口④④口

②口口口
口②口口
口口②口
口口口②
69
⑤口口① |--①-|
口⑥②④ |②-③-|
口③⑦④ |④-⑤-|
口口口口 |⑥-⑦-|
70
∨>①① |①-②③|
③口口∧ |-④⑤-|
③口口∨ |⑥-⑦⑧|
∧>⑤⑤ |⑨⑩⑪-|

⑪⑪口口
口口⑦⑧
口口⑨⑩
∧∧口口

口口②②
④口口口
④口口口
口口⑥⑥
71
口口①口 |--①-|
②②口口 |②---|
口口口口 |③-④-|
∧∧口口 |--⑤-|

口口口口
口口③口
④④⑤口
∧∧口口

①①口口
③③口口
⑤⑤口口
口口口口
72
口口口口 |①---|
口口① |②-③-|
口口口② |--④-|
口口① |⑤-⑥-|

口口口口
口③口
口口④口
口③口

口口⑤⑤
口口口口
口口口口
⑥⑥口口

口口口口
口口④②
口口口口
口口④②
73
口口口口 |--①-|
③口口口 |②-③-|
口①口② |④⑤⑥⑦|
口口口口 |⑧⑨⑩⑪|

⑦⑥⑤④
口⑨⑧口
口⑪⑩口
口口口口
74
口③口口 |①--②|
③口口口 |--③-|
①口口② |④-⑤-|
口①②口 |⑥⑦⑧⑨|

口口④⑥
口⑤⑦④
口⑧⑤口
⑨口口口
75
口口③口 |①--②|
口口口③ |--③-|
②口口① |④-⑤-|
口②①口 |⑥⑦⑧⑨|

⑥④口口
④⑦⑤口
口⑤⑧口
口口口⑨
76
口口③口 |①--②|
口口口③ |--③-|
①口口② |④-⑤-|
口①②口 |--⑥-|

口⑤口⑤
口口④口
口口口口
口⑥口⑥
77
⑤口④⑤ |--①-|
口⑥⑦① |②-③-|
③⑧⑨口 |④-⑤-|
口口②口 |⑥⑦⑧⑨|
78
口口③口 |①--②|
口口口③ |--③-|
②口口① |④-⑤-|
口②①口 |⑥⑦⑧⑨|

⑥④口口
④⑦⑤口
口⑤⑧口
口口口⑨
79
口④③⑦ |①-②-|
⑤口⑧② |③-④-|
⑥⑨口① |⑤-⑥-|
⑩口口口 |⑦⑧⑨⑩|
80
口口口∨ |①---|
口②口① |②-③-|
口口口① |--④-|
口口口∧ |⑤---|

口口口口
口口口口
口口④口
③③<

∨口口口
⑤口口口
⑤口口口
∧口口口

口口口口
口口口②
口口口②
口④④口
81
⑤口③口 |①-②-|
口⑥①口 |③-④-|
口②⑦④ |⑤-⑥-|
口口口⑧ |⑦-⑧-|

口口口口
①口口口
①口口口
口口口口
82
口口②口 |①-②-|
①口口口 |③-④-|
①③口口 |⑤-⑥-|
口④④口 |⑦-⑧-|

口⑤口口
口口口⑦
⑧口⑥⑦
口口口口
83
④⑤⑥⑦ |--①-|
③口①口 |②-③-|
口②口口 |④⑤⑥⑦|
⑧⑨⑩⑪ |⑧⑨⑩⑪|
84
口口口口 |①---|
口①①口 |----|
口①①口 |----|
口口口口 |----|
85
口口口口 |----|
口口口口 |----|
口口口口 |----|
口口口口 |----|
最終更新:2019年11月11日 12:29