アットウィキロゴ
Northern Wind
Nhato

EXTREME

Level: 10.5
BPM: 150
Notes(hold): 884(26)

1
口①口口 |----|
口口②口 |----|
口口口口 |--①②|
口③③口 |③---|
2
>━━① |①---|
①①口口 |----|
口口口口
口口口口

口口口②
口口③口
口口②口 |--②-|
>━━④ |③-④-|
3
③④口口 |①--②|
③④口口 |--③-|
②②⑤口 |④-⑤-|
①①口⑤

>━━⑦
口口口⑥
口口口口
口口口口 |⑥-⑦-|
4
口口口② |①---|
口口③口 |----|
①①②口 |----|
>━━④ |②③④-|
5
③④口口 |①--②|
③④口口 |--③-|
②②口口 |④-|
①①口口

口口口口
口>━⑤
口口口口 |⑤-|
口口口⑤ |----|
6
口口口口 |①---|
口口口① |----|
>①①口
口口口口

口口口口
②②口口
口口③⑤ |②-③-|
口口④③ |④-⑤-|
7
⑤⑥①④ |①-②③|
⑤⑥⑤② |④-⑤-|
③③⑦口 |⑥-⑦-|
①①口口

口口口口
>━━⑩
口口口⑨
口口口⑧ |⑧⑨⑩-|
8
口口口口 |①---|
口口口口 |----|
①①口口 |----|
口口口口 |----|
9
口口口口 |----|
①②口③ |----|
口口③口 |--①②|
③口口口 |③---|
10
>①━① |①-②③|
口口口口 |--④-|
②③口口
口④口口

⑤口口⑥
⑥⑦口口
口口⑥口 |⑤-⑥⑦|
口口口口

口⑨口口
口口⑧口
口口口口
>━━⑨ |⑧-⑨-|
11
②口口口 |-①--|
口口口口 |②--③|
口③④口 |--④-|
①④口④

>━━⑥
口口口⑤
口口口口
口口口口 |⑤-⑥-|
12
口①口口 |①-②③|
口口口口 |--④-|
②③口口
口④口口

⑤⑩口⑧
⑥⑦⑨口
口口⑧口 |⑤-⑥⑦|
>━━⑩ |⑧⑨⑩-|
13
②口口口 |-①--|
口>━④ |②--③|
口③口口 |--④-|
①④口④ |----|
14
口①口口 |①-|
口口口①
>━①口
口口口口

⑤⑧口口 |②③|
⑥⑦口口 |--④-|
②③口口 |⑤-⑥⑦|
口④口口 |--⑧-|
15
⑤⑧口口 |①-②③|
⑥⑦口口 |--④-|
②③口口 |⑤-⑥⑦|
①④口口 |--⑧-|
16
⑦口口② |①②③④|
口口⑥口 |⑤⑥⑦⑧|
口③①口
①⑤④⑧

口口⑩口
⑮⑪口口
⑨口⑭⑫ |⑨⑩⑪⑫|
⑬口⑯口 |⑬⑭⑮⑯|
17
⑦③⑩② |①②③④|
口⑪④⑥ |⑤⑥⑦⑧|
⑤⑨⑫⑧ |⑨⑩⑪⑫|
⑬①口口 |⑬---|
18
口①口口 |①-②③|
口口口口 |④-⑤-|
②③口④
口⑤口①

⑥⑩口⑨
⑦⑧口⑥
口口口口 |⑥-⑦⑧|
口口口口 |⑨-⑩-|
19
③口口⑦ |①②--|
口口口⑤ |③--④|
口④口③ |⑤-⑥-|
②⑥口① |⑦---|
20
口①口口 |①-②③|
口口口口 |④-⑤-|
②③口④
口⑤口①

⑥⑩口⑨
⑦⑧口⑥
口口口口 |⑥-⑦⑧|
口口口口 |⑨-⑩-|
21
③口口口 |①②--|
口口口口 |③--④|
口④口③
②口口①

口口⑧⑦
口口口⑤
口口口口 |⑤-⑥-|
⑧⑥口口 |⑦-⑧-|
22
②口口⑧ |①-②③|
⑨①③⑦ |④⑤⑥-|
④⑦①⑩ |⑦-⑧⑨|
⑪⑥⑫⑤ |⑩⑪⑫-|
23
⑬⑤①⑨ |①②③④|
⑩②⑥⑭ |⑤⑥⑦⑧|
⑦⑮③⑪ |⑨⑩⑪⑫|
⑫④⑯⑧ |⑬⑭⑮⑯|
24
口④口口 |①-②③|
口①①口 |④⑤⑥-|
口口③⑤
⑥②口口

口口口口
口⑩口⑦
口⑨口口 |⑦-⑧-|
口口口⑧ |⑨-⑩-|
25
①口③② |①-②-③④⑤⑥|
口口④⑧ |⑦⑧⑨⑩|
⑨口⑤口
⑦口⑥⑩

口口口⑬
⑭⑫口口
口口口⑮ |-⑪⑫-|
⑯⑪口口 |⑬⑭⑮⑯|
26
口①③口 |①②③④|
口口②⑤ |⑤-⑥-|
③④①口
口⑥⑥口

⑦⑩口⑩
⑧⑨口口
口口口⑨ |⑦-⑧⑨|
口口口⑦ |--⑩-|
27
④口③⑨ |①②③-|
口口②④ |④-⑤⑥|
口⑥①⑩ |⑦-⑧⑨|
②⑧⑤⑦ |--⑩-|
28
口①③口 |①②③④|
口口②⑤ |⑤-⑥-|
③④①口
口⑥⑥口

⑦⑩口⑩
⑧⑨口口
口口口⑨ |⑦-⑧⑨|
口口口⑦ |--⑩-|
29
④口①⑩ |①②③-|
口口②④ |④-⑤⑥|
口⑥③⑧ |⑦⑧⑨⑩|
②⑨⑤⑦ |----|
30
口①③口 |①②③④|
口口②⑤ |⑤-⑥-|
③④①口
口⑥⑥口

⑦⑩口⑩
⑧⑨口口
口口口⑨ |⑦-⑧⑨|
口口口⑦ |--⑩-|
31
④口③⑨ |①②③-|
口口②④ |④-⑤⑥|
口⑥①⑩ |⑦-⑧⑨|
②⑧⑤⑦ |--⑩-|
32
口①③口 |①②③④|
口口②⑤ |⑤-⑥-|
③④①口
口⑥⑥口

⑦⑩口⑩
⑧⑨口口
口口口⑨ |⑦-⑧⑨|
口口口⑦ |--⑩-|
33
④口③⑨ |①②③-|
口口⑤② |④-⑤⑥|
口⑥①⑥ |--⑦⑧|
②⑦⑧④ |--⑨-|
34
口①③口 |①②③④|
口口②⑤ |⑤-⑥-|
口④①口
口⑥⑥口

⑦⑨口⑨
口⑧口口
口口口⑧ |⑦--⑧|
口口口⑦ |--⑨-|
35
④口③⑨ |①②③-|
口口②④ |④-⑤⑥|
口⑥①⑩ |⑦-⑧⑨|
②⑧⑤⑦ |--⑩-|
36
口①③口 |①②③④|
口口②⑤ |⑤-⑥-|
口④①口
口⑥⑥口

⑦⑨口⑨
口⑧口口
口口口⑧ |⑦--⑧|
口口口⑦ |--⑨-|
37
④口①⑩ |①②③-|
口口②④ |④-⑤⑥|
口⑥③⑧ |⑦⑧⑨⑩|
②⑨⑤⑦ |----|
38
口口③口 |①---|
②口①口 |----|
①口⑤④ |②-③-|
口口口口 |④-⑤-|
39
①口口① |①-②-|
口口③口 |③-④-|
口口口口
口口②④

口口⑥⑨
口口口⑧
口口口⑦ |⑤-⑥-|
口⑤口口 |⑦⑧⑨-|
40
口口口口 |①---|
口口口口 |----|
①口口口 |----|
口口口口 |----|
41
④③②① |①②③④|
⑯⑮⑭⑬ |⑤⑥⑦⑧|
⑫⑪⑩⑨ |⑨⑩⑪⑫|
⑧⑦⑥⑤ |⑬⑭⑮⑯|
42
口③②① |①②③-|
口⑩⑨⑧ |④⑤⑥⑦|
⑦⑫⑬⑭ |⑧⑨⑩⑪|
④⑤⑥⑪ |⑫⑬⑭-|
43
①②③口 |①②③-|
口口口⑦ |④⑤⑥⑦|
口口口口
⑥⑤④口

口⑭⑬⑫
⑪口口口
⑧⑨⑩口 |⑧⑨⑩⑪|
口口口口 |⑫⑬⑭-|
44
⑧⑨⑩口 |①②③-|
口⑥⑤④ |④⑤⑥⑦|
⑭⑬⑫⑦ |⑧⑨⑩⑪|
⑪①②③ |⑫⑬⑭-|
45
④⑤⑥口 |①②③-|
⑦口口口 |④⑤⑥⑦|
口口口口
口③②①

口口口口
口口口⑪
口⑩⑨⑧ |⑧⑨⑩⑪|
⑫⑬⑭口 |⑫⑬⑭-|
46
口③②① |①②③-|
④⑤⑥口 |④⑤⑥-|
①⑨⑧⑦ |⑦⑧⑨-|
⑦⑩⑪⑫ |⑩⑪⑫-|
47
③②①口 |①②③-|
口④⑤⑥ |④⑤⑥-|
①口口口
口口口口

口⑩⑪⑫
口口口口
口⑨⑧⑦ |⑦⑧⑨-|
⑦口口口 |⑩⑪⑫-|
48
⑯⑮⑭⑬ |①②③④|
⑧⑦⑥⑤ |⑤⑥⑦⑧|
⑫⑪⑩⑨ |⑨⑩⑪⑫|
④③②① |⑬⑭⑮⑯|
49
⑬⑭⑮⑯ |①②③④|
⑤⑥⑦⑧ |⑤⑥⑦⑧|
⑨⑩⑪⑫ |⑨⑩⑪⑫|
①②③④ |⑬⑭⑮⑯|
50
⑧口口⑦ |①---|
口③②⑪ |②③④⑤|
⑩口⑥⑨ |⑥-⑦⑧|
①⑤④口 |⑨⑩⑪-|
51
⑦②①⑥ |①②③④|
口口⑤口 |⑤-⑥⑦|
口口口⑩ |⑧⑨⑩-|
⑨④③⑧

口⑭⑬口
口口口口
口⑫⑪口
口口口口 |⑪⑫⑬⑭|
52
口口口口 |①②③-|
③②①口
口口口口
口口口口

⑤⑩⑨④
口口⑬口 |④⑤⑥⑦|
口口口⑧ |⑧-⑨⑩|
⑦⑫⑪⑥ |⑪⑫⑬-|
53
⑦⑫⑪⑥ |①②③-|
口⑩⑨⑧ |④⑤⑥⑦|
③②①口 |⑧⑨⑩-|
⑤⑭⑬④ |⑪⑫⑬⑭|
54
口口口③ |①②③-|
口⑤⑥口 |④⑤⑥-|
②口口④
口口口①

口口⑨口
⑧口口⑫
⑪口⑦口 |⑦⑧⑨-|
口口口⑩ |⑩⑪⑫-|
55
口口⑥③ |①②③-|
口⑤口口 |④⑤⑥-|
口②口④
口口①口

口口口口
口口⑨⑫
⑧⑪口口 |⑦⑧⑨-|
口口⑩⑦ |⑩⑪⑫-|
56
④⑧⑦③ |①②③④|
口②口口 |⑤⑥⑦⑧|
口口①口
⑥口口⑤

口口口口
⑫⑯⑪⑮
口⑭口⑨ |⑨⑩⑪⑫|
口⑩⑬口 |⑬⑭⑮⑯|
57
②④⑦③ |①②③④|
口口口口 |⑤⑥⑦⑧|
口口⑤口
⑥⑧口①

口口口口
口口口⑩
⑪口口⑨ |⑨-⑩⑪|
口口⑫⑫ |⑫---|
58
>③━① |①②③-|
④②口口 |④-⑤-|
口①口口 |⑥-|
⑥⑤口口

⑩口口⑦
口口⑨口
⑧口⑦口 |⑦⑧|
>━━⑩ |⑨-⑩-|
59
⑧③口口 |①②③-|
④②口口 |④-⑤-|
口①⑦口 |⑥-⑦⑧|
⑥⑤口⑦

>━━⑩
口口口⑨
⑩口口口
口口口口 |⑨-⑩-|
60
口③口口 |①②③-|
④②口口 |④-⑤-|
⑦①口口 |⑥--⑦|
⑥⑤口口

⑩口口⑧
口口⑨口
口口⑧口
>━━⑩ |⑧⑨⑩-|
61
口①口口 |①②③-|
④②口口 |④-⑤-|
口③口口
口⑤口口

⑨口口口
口>━⑧
⑦口口口 |⑥⑦⑧⑨|
⑥口口⑧ |----|
62
口③口口 |①②③-|
④②口① |④-⑤-|
>①①口
口⑤口口

⑩口口口
口口口口
⑧口⑦⑩ |⑥-⑦⑧|
⑥口⑨⑦ |⑨-⑩-|
63
口③①④ |①②③-|
④②⑤③ |④-⑤-|
口①口口
口⑤口口

⑧口口口
>━━⑪
⑪口⑦⑩ |⑥-⑦⑧|
⑥口口⑨ |⑨⑩⑪-|
64
口③口口 |①②③-|
④②口口 |④-⑤-|
口①口口
口⑤口口

⑥口口口
口口口口
口⑦口口 |⑥--⑦|
⑧口口口 |--⑧-|
65
口口③口 |①-②-③④⑤⑥|
①口④⑨ |----|
⑩口⑤⑨ |⑦-⑧-|
⑧⑦⑥② |⑨-⑩-|
66
>③━① |①②③-|
④②口口 |④-⑤-|
口①口口 |⑥-|
⑥⑤口口

⑩口口⑦
口口⑨口
⑧口⑦口 |⑦⑧|
>━━⑩ |⑨-⑩-|
67
⑧③口口 |①②③-|
④②口口 |④-⑤-|
口①⑦口 |⑥-⑦⑧|
⑥⑤口⑦

>━━⑩
口口口⑨
⑩口口口
口口口口 |⑨-⑩-|
68
口③口口 |①②③-|
④②口口 |④-⑤-|
⑦①口口 |⑥--⑦|
⑥⑤口口

⑩口口⑧
口口⑨口
口口⑧口
>━━⑩ |⑧⑨⑩-|
69
口①口口 |①②③-|
④②口口 |④-⑤-|
口③口口
口⑤口口

⑨口口口
口>━⑧
⑦口口口 |⑥⑦⑧⑨|
⑥口口⑧ |----|
70
口③口口 |①②③-|
④②口① |④-⑤-|
>①①口
口⑤口口

⑩口口⑦
口口⑪口
⑧口⑦⑩ |⑥-⑦⑧|
⑥口⑨口 |⑨-⑩⑪|
71
⑧③④⑪ |①②③-|
④②⑩⑤ |④-⑤-|
口①⑦⑨ |⑥-⑦⑧|
⑥⑤口③ |⑨⑩⑪-|
72
口口④口 |①②③④|
口①口口 |⑤⑥⑦⑧|
⑤口口⑧
⑦③⑥②

⑨⑬⑯⑫
⑪口⑩⑭
口口口口 |⑨⑩⑪⑫|
口⑮口口 |⑬⑭⑮⑯|
73
⑦口口⑩ |①-②-③④⑤⑥|
口①口口 |⑦⑧⑨⑩|
③④⑤⑥
⑨口⑧②

口⑬口口
⑪⑰⑭⑫
口口口⑱ |⑪⑫⑬⑭|
口⑮口⑯ |⑮⑯⑰⑱|
74
①口①口 |①---|
口口口口 |----|
口①口口 |----|
口口口口 |----|
最終更新:2019年12月23日 03:29