アットウィキロゴ
星座が恋した瞬間を。
BEMANI Sound Team "DJ TOTTO feat.MarL"

BASIC

Level: 3
BPM: 186
Notes: 192

1
口口口口 |----|
口口口口 |----|
口口口口 |----|
口口口口 |----|
2
①口口口 |①---|
口口口口 |----|
口口口口 |----|
口口口口 |----|
3
口口口口 |①---|
①口口口 |----|
口口口口 |----|
口口口口 |----|
4
口口口口 |①---|
口①口口 |----|
口口口口 |----|
口口口口 |----|
5
口①口口 |①---|
口口口口 |----|
口口口口 |----|
口口口口 |----|
6
口口口① |①---|
口口口口 |----|
口口口口 |----|
口口口口 |----|
7
口口口口 |①---|
口口口① |----|
口口口口 |----|
口口口口 |----|
8
口口口口 |①---|
口口①口 |----|
口口口口 |----|
口口口口 |----|
9
口口①口 |①---|
口口口口 |----|
口口口口 |----|
口口口口 |----|
10
口口口口 |①---|
①②口口 |----|
口口口口 |②---|
口口口口 |----|
11
口口口口 |①---|
口口①② |----|
口口口口 |②---|
口口口口 |----|
12
口口口口 |①---|
口口口口 |----|
口口②① |②---|
口口口口 |----|
13
口口口口 |①---|
口口口口 |----|
②①口口 |②---|
口口口口 |----|
14
口口口口 |①---|
①②口口 |----|
口口口口 |②---|
口口口口 |----|
15
口口口口 |①---|
口口①② |----|
口口口口 |②---|
口口口口 |----|
16
口口口口 |①---|
口口口口 |----|
口①②口 |②---|
口口口口 |----|
17
口口口口 |①---|
口①②口 |----|
口口口口 |②---|
口口口口 |----|
18
口口口口 |----|
口口口口 |----|
口口口口 |----|
口口口口 |----|
19
口①口口 |①---|
口口口口 |----|
口口口口 |----|
口口口口 |----|
20
口口口口 |①---|
口口①口 |----|
口口口口 |----|
口口口口 |----|
21
口口口口 |①---|
口口口口 |----|
口①口口 |----|
口口口口 |----|
22
口口口口 |①---|
口口口口 |----|
口口口口 |----|
口口①口 |----|
23
口口口口 |①---|
口口口口 |----|
①②口口 |②---|
口口口口 |----|
24
口口口口 |①---|
口口口口 |----|
口口①② |②---|
口口口口 |----|
25
口口口口 |①---|
口口②① |----|
口口口口 |②---|
口口口口 |----|
26
口口口口 |①---|
②①口口 |----|
口口口口 |②---|
口口口口 |----|
27
口口①口 |①---|
口口口口 |----|
口口口口 |----|
口口口口 |----|
28
口口口口 |①---|
口①口口 |----|
口口口口 |----|
口口口口 |----|
29
口口口口 |①---|
口口口口 |----|
口口①口 |----|
口口口口 |----|
30
口口口口 |①---|
口口口口 |----|
口口口口 |----|
口①口口 |----|
31
口口口口 |①---|
口口口口 |----|
口口②① |②---|
口口口口 |----|
32
口口口口 |①---|
口口口口 |----|
②①口口 |②---|
口口口口 |----|
33
口口口口 |①---|
①②口口 |----|
口口口口 |②---|
口口口口 |----|
34
口口口口 |①---|
口口①② |----|
口口口口 |②---|
口口口口 |----|
35
口①口口 |①---|
口口口口 |----|
口口口口 |----|
口口口口 |----|
36
口口①口 |①---|
口口口口 |----|
口口口口 |----|
口口口口 |----|
37
口口口口 |①---|
口①口口 |----|
口口口口 |----|
口口口口 |----|
38
口口口口 |①---|
口口①口 |----|
口口口口 |----|
口口口口 |----|
39
口口口口 |①---|
①口口口 |----|
口口口口 |----|
口口口口 |----|
40
口口口口 |①---|
口口口① |----|
口口口口 |----|
口口口口 |----|
41
①口口口 |①---|
口口口口 |----|
口口口口 |----|
口口口口 |----|
42
口口口① |①---|
口口口口 |----|
口口口口 |----|
口口口口 |----|
43
口①②口 |①---|
口③④口 |②---|
口口口口 |③---|
口口口口 |④---|
44
口口口口 |①---|
口口口口 |②---|
口①②口 |③---|
口③④口 |④---|
45
口口口口 |①---|
口口口口 |②---|
①②③④ |③---|
口口口口 |④---|
46
口②②口 |①---|
口①①口 |----|
口口口口 |②---|
口口口口 |----|
47
①口口② |①---|
③口口④ |②---|
口口口口 |③---|
口口口口 |④---|
48
口口口口 |①---|
口口口口 |②---|
①口口② |③---|
③口口④ |④---|
49
口口口口 |①---|
口口口口 |②---|
①②③④ |③---|
口口口口 |④---|
50
口口口口 |①---|
口①①口 |----|
口②②口 |②---|
口口口口 |----|
51
口①②口 |①---|
口③④口 |②---|
口口口口 |③---|
口口口口 |④---|
52
口口口口 |①---|
口口口口 |②---|
口①②口 |③---|
口③④口 |④---|
53
口口口口 |①---|
口口口口 |②---|
①②③④ |③---|
口口口口 |④---|
54
口②②口 |①---|
口①①口 |----|
口口口口 |②---|
口口口口 |----|
55
①口口② |①---|
③口口④ |②---|
口口口口 |③---|
口口口口 |④---|
56
口口口口 |①---|
口口口口 |②---|
①口口② |③---|
③口口④ |④---|
57
口口口口 |①---|
口口口口 |②---|
①②③④ |③---|
口口口口 |④---|
58
口口口口 |①---|
口①①口 |----|
口②②口 |②---|
口口口口 |----|
59
口口口口 |①---|
①口口口 |----|
口口口口 |----|
口口口口 |----|
60
口口口口 |①---|
口口口① |----|
口口口口 |----|
口口口口 |----|
61
口口口口 |①---|
口口口口 |----|
口①口口 |----|
口口口口 |----|
62
口口口口 |①---|
口口口口 |----|
口口①口 |----|
口口口口 |----|
63
口口口口 |①---|
口口口口 |----|
①口口口 |----|
口口口口 |----|
64
口口口口 |①---|
口口口口 |----|
口口口① |----|
口口口口 |----|
65
口口口口 |①---|
口①口口 |----|
口口口口 |----|
口口口口 |----|
66
口口口口 |①---|
口口①口 |----|
口口口口 |----|
口口口口 |----|
67
口口口口 |----|
口口口口 |----|
口口口口 |----|
口口口口 |----|
68
①口口口 |①---|
口口口口 |----|
口口口口 |----|
口口口口 |----|
69
口口口口 |①---|
①口口口 |----|
口口口口 |----|
口口口口 |----|
70
口口口口 |①---|
口①口口 |----|
口口口口 |----|
口口口口 |----|
71
口①口口 |①---|
口口口口 |----|
口口口口 |----|
口口口口 |----|
72
口口口① |①---|
口口口口 |----|
口口口口 |----|
口口口口 |----|
73
口口口口 |①---|
口口口① |----|
口口口口 |----|
口口口口 |----|
74
口口口口 |①---|
口口①口 |----|
口口口口 |----|
口口口口 |----|
75
口口①口 |①---|
口口口口 |----|
口口口口 |----|
口口口口 |----|
76
口①②口 |①---|
口③④口 |②---|
口口口口 |③---|
口口口口 |④---|
77
口口口口 |①---|
口口口口 |②---|
口①②口 |③---|
口③④口 |④---|
78
口口口口 |①---|
口口口口 |②---|
①②③④ |③---|
口口口口 |④---|
79
口②②口 |①---|
口①①口 |----|
口口口口 |②---|
口口口口 |----|
80
①口口② |①---|
③口口④ |②---|
口口口口 |③---|
口口口口 |④---|
81
口口口口 |①---|
口口口口 |②---|
①口口② |③---|
③口口④ |④---|
82
口口口口 |①---|
口口口口 |②---|
①②③④ |③---|
口口口口 |④---|
83
口口口口 |①---|
口①①口 |----|
口②②口 |②---|
口口口口 |----|
84
口①②口 |①---|
口③④口 |②---|
口口口口 |③---|
口口口口 |④---|
85
①口口① |①---|
口口口口 |----|
口②②口 |②---|
口口口口 |----|
86
口口口口 |①---|
①②口口 |----|
口口口口 |②---|
口口口口 |----|
87
口口口口 |①---|
口口①② |----|
口口口口 |②---|
口口口口 |----|
88
口口口口 |①---|
口口口口 |----|
口口②① |②---|
口口口口 |----|
89
口口口口 |①---|
口口口口 |----|
②①口口 |②---|
口口口口 |----|
90
口口口口 |①---|
①②口口 |----|
口口口口 |②---|
口口口口 |----|
91
口口口口 |①---|
口口①② |----|
口口口口 |②---|
口口口口 |----|
92
口口口口 |①---|
口口口口 |----|
口①②口 |②---|
口口口口 |----|
93
口口口口 |①---|
口①②口 |----|
口口口口 |②---|
口口口口 |----|

accuracy: 100%
最終更新:2022年04月18日 02:33