アットウィキロゴ
星座が恋した瞬間を。
BEMANI Sound Team "DJ TOTTO feat.MarL"

ADVANCED

Level: 7
BPM: 186
Notes: 570

1
口口口口 |----|
口口口口 |----|
口口口口 |----|
口口口口 |----|
2
⑦⑧口口 |①-②-|
口⑥⑤④ |③-④-|
①②③口 |⑤-⑥-|
口口口口 |⑦-⑧-|
3
口口①口 |①---|
口口口口 |②-③-|
口②③⑤ |④---|
口④口口 |--⑤-|
4
②口口① |①---|
口③④口 |②---|
口⑤⑥口 |③-④-|
口口口口 |⑤-⑥-|
5
口口口口 |①---|
③口口口 |②---|
口口口② |③---|
口①口口 |----|
6
⑦口口口 |①-②-|
口⑥⑤④ |③-④-|
①②③口 |⑤-⑥-|
口口口口 |⑦---|
7
口口口① |①---|
口口口口 |②-③-|
口②③口 |④---|
口④口口 |----|
8
口口口口 |①---|
口口口口 |②---|
①②④③ |③---|
口口口口 |④---|
9
口口②口 |①---|
口①③口 |--②-|
口④口口 |③-④-|
口⑤口口 |⑤---|
10
口口口口 |①-②-|
③口口④ |③-④-|
①口口②
口口口口

口口口口
口口口口
⑦⑤⑥口 |⑤-⑥-|
口口口口 |--⑦-|
11
①口口② |--①-|
③口口④ |②-③-|
口口⑤口 |④-⑤-|
口⑥口口 |⑥---|
12
口口口口 |①-②-|
③口口④ |③-④-|
①口口②
口口口口

口口口口
口口口口
⑦⑤⑥口 |⑤-⑥-|
口口口口 |--⑦-|
13
①④口② |--①-|
③口⑤口 |②-③-|
口⑥口口 |④-⑤-|
口口⑦口 |⑥-⑦-|
14
口口口口 |①-②-|
④口口③ |③-④-|
②口口①
口口口口

口口口口
口口口口
口⑥⑤⑦ |⑤-⑥-|
口口口口 |--⑦-|
15
②口口① |--①-|
④口口③ |②-③-|
口⑤口口 |④-⑤-|
口口⑥口 |⑥---|
16
口⑤⑥口 |①-②-|
口④②口 |③-④-|
③⑦⑧① |⑤-⑥-|
口口口口 |⑦-⑧-|
17
口口口④ |①-②-|
③⑤口② |③-④-|
口⑦口口 |⑤-⑥-|
口①⑥口 |⑦---|
18
口口口口 |----|
口口口口 |----|
口口口口 |----|
口口口口 |----|
19
①口口口 |①---|
口⑤口口 |②---|
②口④口 |③-④-|
口③口口 |⑤---|
20
口口口① |①---|
口口⑤口 |②---|
口④口② |③-④-|
口口③口 |⑤---|
21
①口⑥口 |①---|
口③口⑤ |②-③-|
②口④口 |④-⑤-|
口口口口 |⑥---|
22
口口口口 |①---|
口口①口 |----|
口口口口 |----|
口②②口 |②---|
23
②口口② |①---|
③①①③ |----|
④口口④ |--②-|
口口口口 |③-④-|
24
口口口口 |----|
口②口口 |----|
口口①口 |①---|
口口口口 |②---|
25
①口③③ |①---|
④④②② |②-③-|
⑤⑤口口 |--④-|
⑥⑥口口 |⑤-⑥-|
26
口口口口 |----|
口口口口 |----|
口口口口 |----|
口口口口 |----|
27
①⑥口② |①-②-|
③口口④ |③-④-|
⑤口口口 |⑤---|
口口口口 |⑥---|
28
口口②口 |①---|
口口口口 |②---|
口③④① |③-④-|
口⑤口口 |⑤---|
29
①口口口 |①---|
口口口⑥ |②-③-|
②③④⑤ |④-⑤-|
口口口口 |⑥---|
30
口口口口 |①---|
口口口口 |----|
口②②口 |----|
口口①口 |②---|
31
②①①② |①---|
③口口③ |----|
④口口④ |--②-|
口口口口 |③-④-|
32
口口口口 |----|
口②口口 |----|
口口①口 |①---|
口口口口 |②---|
33
①口③③ |①---|
④④②② |②-③-|
⑤⑤口口 |--④-|
⑥⑥口口 |⑤-⑥-|
34
口口口口 |----|
口口口口 |----|
口口口口 |----|
口口口口 |----|
35
口口口口 |①-②-|
③⑦②口 |③-④-|
⑥①口口 |⑤---|
口⑤④口 |⑥-⑦-|
36
口②①口 |①---|
口口③口 |②-③-|
口口口④ |④---|
口口口口 |----|
37
口口口口 |①-②-|
口②⑦③ |③-④-|
口口①⑥ |⑤---|
口④⑤口 |⑥-⑦-|
38
口①②口 |①---|
口③口口 |②-③-|
④口口口 |④---|
口口口口 |----|
39
口④口口 |①-②-|
②口口③ |③-④-|
口口⑤口 |⑤---|
口口①口 |----|
40
⑥口④⑥ |①-②-|
③口口② |③-④-|
口⑤口口 |⑤---|
口①口口 |⑥---|
41
口口④口 |①---|
口⑤⑥口 |②-③-|
①口③① |--④-|
口②口口 |⑤-⑥-|
42
口①口口 |①---|
口口口口 |----|
口口口口 |②---|
口②②口 |----|
43
①⑦⑦⑥ |①-②-|
⑤⑧⑧② |③-④-|
③口口④ |⑤-⑥-|
口口口口 |⑦-⑧-|
44
②口口口 |①---|
③口口⑤ |②-③-|
④①①⑤ |④---|
口口口口 |--⑤-|
45
②②口口 |①---|
口口①口 |②---|
口口①口
口口口口

口口口口
口口口口
口⑤⑥口 |③-④-|
口③④口 |⑤-⑥-|
46
②口口① |①---|
①口口② |②---|
口口口口 |③---|
口③③口 |----|
47
⑥⑦⑦① |①-②-|
②口口⑤ |③-④-|
④口口③ |⑤-⑥-|
口口口口 |⑦---|
48
口口口② |①---|
⑤口口③ |②-③-|
⑤①①④ |④---|
口口口口 |--⑤-|
49
口口②② |①---|
口①口④ |②---|
④①口口 |③---|
口口③③ |④---|
50
口口口口 |①---|
①口②口 |②-③-|
口③口① |④---|
口口④口 |----|
51
①⑦⑦⑥ |①-②-|
⑤⑧⑧② |③-④-|
③口口④ |⑤-⑥-|
口口口口 |⑦-⑧-|
52
②口口口 |①---|
③口口⑤ |②-③-|
④①①⑤ |④---|
口口口口 |--⑤-|
53
②②口口 |①---|
口口①口 |②---|
口口①口
口口口口

口口口口
口口口口
口⑤⑥口 |③-④-|
口③④口 |⑤-⑥-|
54
②口口① |①---|
①口口② |②---|
口口口口 |③---|
口③③口 |----|
55
⑥⑦⑦① |①-②-|
②⑧⑧⑤ |③-④-|
④口口③ |⑤-⑥-|
口口口口 |⑦-⑧-|
56
口口口④ |①---|
③口口口 |②-③-|
口①①② |④---|
口口口口 |----|
57
口口口口 |①---|
②④③① |②---|
①③④② |③---|
口口口口 |④---|
58
②口①口 |①---|
口口口③ |--②-|
④口口口 |③-④-|
口①口⑤ |⑤---|
59
口①口口 |----|
口口口口 |①---|
口②③口 |②-③-|
口④⑤口 |④-⑤-|
60
口口口口 |①-②-|
⑤口⑦口 |③-④-|
③⑥口④ |⑤---|
①口口② |⑥-⑦-|
61
④口口① |①---|
⑤③口⑥ |②-③-|
口口②口 |④---|
口口口口 |⑤-⑥-|
62
口口口⑥ |①-②-|
口口⑦口 |③-④-|
①③④② |⑤---|
口⑤口口 |⑥-⑦-|
63
口①口口 |①---|
口②③口 |----|
口口口口 |----|
口口口口 |②-③-|
64
⑦口口⑧ |①-②-|
⑤口口⑥ |③-④-|
③①②④ |⑤-⑥-|
口口口口 |⑦-⑧-|
65
口①②口 |①-②-|
口③④口 |③-④-|
口⑤⑥口 |⑤-⑥-|
口⑦⑧口 |⑦-⑧-|
66
口口口口 |①-②-|
①②③④ |③-④-|
⑧⑦⑥⑤ |⑤-⑥-|
口口口口 |⑦-⑧-|
67
口口口口 |----|
口口口口 |----|
口口口口 |----|
口口口口 |----|
68
⑦⑧口口 |①-②-|
口⑥⑤④ |③-④-|
①②③口 |⑤-⑥-|
口口口口 |⑦-⑧-|
69
口口①口 |①---|
口口口口 |②-③-|
口②③⑤ |④---|
口④口口 |--⑤-|
70
②口口① |①---|
口③④口 |②---|
口⑤⑥口 |③-④-|
口口口口 |⑤-⑥-|
71
口口口口 |①---|
③口口口 |②---|
口口口② |③---|
口①口口 |----|
72
⑦口口口 |①-②-|
口⑥⑤④ |③-④-|
①②③口 |⑤-⑥-|
口口口口 |⑦---|
73
口口口① |①---|
⑤口口口 |②-③-|
口②③口 |④---|
口④口口 |--⑤-|
74
口口口④ |①---|
口①③口 |②---|
口②口口 |③---|
口口口口 |④---|
75
①口口口 |①---|
口③④口 |②-③-|
口口②口 |④---|
口口口口 |----|
76
①⑦⑦⑥ |①-②-|
⑤⑧⑧② |③-④-|
③口口④ |⑤-⑥-|
口口口口 |⑦-⑧-|
77
②口口口 |①---|
③口口⑤ |②-③-|
④①①⑤ |④---|
口口口口 |--⑤-|
78
②②口口 |①---|
口口①口 |②---|
口口①口
口口口口

口口口口
口口口口
口⑤⑥口 |③-④-|
口③④口 |⑤-⑥-|
79
②口口① |①---|
①口口② |②---|
口口口口 |③---|
口③③口 |----|
80
⑥⑦⑦① |①-②-|
②⑧⑧⑤ |③-④-|
④口口③ |⑤-⑥-|
口口口口 |⑦-⑧-|
81
口口口② |①---|
口口口③ |②-③-|
口①①④ |④---|
口口口口 |----|
82
③②口③ |①---|
口口①④ |②---|
④①口口 |③---|
口口②口 |④---|
83
口口口口 |①---|
①口②口 |----|
口③口① |②-③-|
口口④口 |④---|
84
口口口口 |①---|
①⑤⑤① |②---|
②④④② |③---|
③口口③ |④-⑤-|
85
①④④① |①---|
④口口④ |②-③-|
②口口② |④---|
③口口③ |----|
86
⑦口口口 |①-②-|
口⑤⑥口 |③-④-|
口③④口 |⑤-⑥-|
口①②口 |--⑦-|
87
口口口口 |--①-|
③口口④ |②-③-|
①口⑤② |④-⑤-|
口⑥口口 |⑥---|
88
口口口口 |①-②-|
③口口④ |③-④-|
①口口②
口口口口

口口口口
口口口口
⑦⑤⑥口 |⑤-⑥-|
口口口口 |--⑦-|
89
①④口② |--①-|
③口⑤口 |②-③-|
口⑥口口 |④-⑤-|
口口⑦口 |⑥-⑦-|
90
口口口口 |①-②-|
④口口③ |③-④-|
②口口①
口口口口

口口口口
口口口口
口⑥⑤⑦ |⑤-⑥-|
口口口口 |--⑦-|
91
②口口① |--①-|
④口口③ |②-③-|
口⑤口口 |④-⑤-|
口口⑥口 |⑥---|
92
口⑤⑥口 |①-②-|
口④②口 |③-④-|
③⑦⑧① |⑤-⑥-|
口口口口 |⑦-⑧-|
93
口口口④ |①-②-|
③⑤⑧② |③-④-|
口⑦口口 |⑤-⑥-|
口①⑥口 |⑦-⑧-|

accuracy: 100%
最終更新:2022年04月18日 02:57