アットウィキロゴ
星座が恋した瞬間を。
BEMANI Sound Team "DJ TOTTO feat.MarL"

EXTREME

Level: 9.3
BPM: 186
Notes: 724

1
口口口口 |----|
口口口口 |----|
口口口口 |----|
口口口口 |----|
2
口⑧⑦口 |①-②-|
③②①口 |③-④-|
口④⑤⑥ |⑤-⑥-|
口口口口 |⑦-⑧-|
3
①口口口 |①---|
口②口口 |②-③-|
口口③⑤ |④---|
口④口口 |--⑤-|
4
⑤口②口 |①---|
⑥③口口 |②---|
口④口口 |③-④-|
口口口① |⑤-⑥-|
5
口①口③ |①---|
口口②口 |②---|
口③口① |③---|
口口口口 |----|
6
①口⑦口 |①-②-|
②口口⑥ |③-④-|
③口口⑤ |⑤-⑥-|
口口口④ |⑦---|
7
①口口口 |①---|
口口②口 |②-③-|
口③口口 |④---|
口口④口 |----|
8
②口③口 |①---|
④口口① |②---|
①口口④ |③---|
口③口② |④---|
9
口②口③ |①---|
口③④② |--②-|
口口⑤口 |③-④-|
口口①口 |⑤---|
10
③口口口 |①-②-|
①口口口 |③-④-|
④口口口
②口口口

口口⑥⑤
⑦口⑥⑤
口口口口 |⑤-⑥-|
口口口口 |--⑦-|
11
②口口④ |--①-|
口口⑤口 |②-③-|
③⑥口口 |④-⑤-|
口①口口 |⑥---|
12
③口口口 |①-②-|
①口口口 |③-④-|
④口口口
②口口口

口口⑥⑤
⑦口⑥⑤
口口口口 |⑤-⑥-|
口口口口 |--⑦-|
13
②口口口 |--①-|
口口⑤④ |②-③-|
③口⑦⑥ |④-⑤-|
口①口口 |⑥-⑦-|
14
③口口口 |①-②-|
①口口口 |③-④-|
④口口口
②口口口

口口⑥⑤
⑦口⑥⑤
口口口口 |⑤-⑥-|
口口口口 |--⑦-|
15
②⑥口口 |--①-|
口口⑤口 |②-③-|
③口口④ |④-⑤-|
口①口口 |⑥---|
16
⑤口④口 |①-②-|
口③口⑥ |③-④-|
⑦口②口 |⑤-⑥-|
口①口⑧ |⑦-⑧-|
17
口⑥口口 |①-②-|
⑤口⑦口 |③-④-|
口④①口 |⑤-⑥-|
口②③口 |⑦---|
18
口⑥口口 |①-②-|
口⑤口口 |③-④-|
口③④口 |--⑤-|
口①②口 |⑥---|
19
⑦⑦口口 |①-②-|
口口口⑥ |③-④-|
⑤③④口 |⑤-⑥-|
口①②口 |⑦---|
20
口口口口 |①-②-|
口①②口 |③-④-|
⑤③④⑥ |⑤-⑥-|
口口⑦⑦ |⑦---|
21
①口口⑥ |①---|
①④⑤口 |②-③-|
口②③口 |④-⑤-|
口口口口 |⑥---|
22
口口口口 |①---|
口口口② |----|
口口口口 |----|
②①①口 |②---|
23
口口口口 |①---|
①④③口 |----|
②口口② |--②-|
口③④① |③-④-|
24
口口②① |----|
口口口口 |----|
口口②① |①---|
口口口口 |②---|
25
口①④口 |①---|
⑤③②口 |②-③-|
口①⑥口 |--④-|
口②③口 |⑤-⑥-|
26
⑤⑥⑦口 |--①-|
口③④口 |②-③-|
口口口口 |④-⑤-|
口①②口 |⑥-⑦-|
27
⑥⑥口口 |①-②-|
口口口口 |③-④-|
口①②⑤ |⑤---|
口③④口 |⑥---|
28
口口②① |①---|
口⑤②口 |②---|
口口①口 |③-④-|
口③④口 |⑤---|
29
口④⑤① |①---|
口⑥口① |②-③-|
口②③口 |④-⑤-|
口口口口 |⑥---|
30
口口口口 |①---|
口口口口 |----|
②口口口 |----|
口①①口 |②---|
31
口①口口 |①---|
④⑤⑥③ |②-③-|
④口⑥② |--④-|
口⑤口口 |⑤-⑥-|
32
口口③② |----|
口口口口 |①---|
口口③② |②---|
口口①口 |③---|
33
④①⑥口 |①---|
口⑤口② |②-③-|
④①⑥口 |--④-|
口口③口 |⑤-⑥-|
34
口口口口 |----|
口口①口 |----|
口口口口 |①---|
口口②口 |②---|
35
口口口口 |①-②-|
③②口口 |③-④-|
①④口口
口口口口

⑤口口口
口口口口
⑦口口口 |⑤---|
口⑥口口 |⑥-⑦-|
36
口②口口 |①---|
③①口⑥ |②-③-|
口④⑤④ |④---|
口口口口 |⑤-⑥-|
37
①⑥口① |①-②-|
⑤⑦口口 |③-④-|
②④口口 |⑤---|
口③口口 |⑥-⑦-|
38
①口口⑥ |①---|
④口口④ |②-③-|
口③⑤口 |④-⑤-|
②口口口 |⑥---|
39
⑤口⑤口 |①-②-|
④②⑧⑥ |③-④-|
口③⑦口 |⑤-⑥-|
口①口① |⑦-⑧-|
40
⑤①口① |①-②-|
③②口⑥ |③-④-|
④口口口 |⑤---|
口⑥口口 |⑥---|
41
③口⑤口 |①---|
⑥口口④ |②-③-|
②①①口 |--④-|
口口口口 |⑤-⑥-|
42
②②口口 |①---|
口口口口 |----|
口①口口 |②---|
口口口口 |----|
43
⑧⑦①② |①-②-|
⑦口③① |③-④-|
④⑥口⑦ |⑤-⑥-|
⑤④⑦⑧ |⑦-⑧-|
44
口口④④ |①---|
⑤①⑤④ |②-③-|
③口①口 |④---|
口②口口 |--⑤-|
45
⑤①口③ |①---|
⑥②口④ |②---|
⑤①口③ |③-④-|
口口口口 |⑤-⑥-|
46
口②①口 |①---|
口口口口 |②---|
口④⑤口 |③---|
③①②③ |④-⑤-|
47
口口①② |①-②-|
⑦口③① |③-④-|
④⑥口⑦ |⑤-⑥-|
⑤④口口 |⑦---|
48
⑥①③口 |①---|
口口口② |②-③-|
口⑤④⑥ |④---|
口口①口 |⑤-⑥-|
49
口口口② |①---|
②①①口 |②---|
④口口口 |③---|
口③③④ |④---|
50
口①①口 |①---|
口口口② |②-③-|
口口口③ |④---|
口④④口 |----|
51
②①⑦⑧ |①-②-|
①③口⑦ |③-④-|
⑦口⑥④ |⑤-⑥-|
⑧⑦④⑤ |⑦-⑧-|
52
②⑤口口 |①---|
③⑥①⑥ |②-③-|
口①④口 |④---|
口口口口 |⑤-⑥-|
53
②口⑤③ |①---|
④⑥口口 |②---|
②口⑤③ |③-④-|
口①口① |⑤-⑥-|
54
④①口口 |①---|
④口口口 |②-③-|
口①⑥口 |④---|
口②③⑤ |⑤-⑥-|
55
⑦⑧①② |①-②-|
⑧⑦③① |③-④-|
④⑥⑦⑧ |⑤-⑥-|
⑤④⑧⑦ |⑦-⑧-|
56
口口④① |①---|
口口②① |②-③-|
③⑤口口 |④---|
口④⑥口 |⑤-⑥-|
57
①口口① |①-②-|
⑤②④⑤ |③-④-|
③⑧⑥③ |⑤-⑥-|
⑦口口⑦ |⑦-⑧-|
58
⑤①①④ |①---|
③⑤口② |--②-|
②口⑤③ |③-④-|
④口口⑤ |⑤---|
59
口①口口 |----|
口口⑤口 |①---|
④②口口 |②-③-|
口口③口 |④-⑤-|
60
口⑤④口 |①-②-|
③①⑧② |③-④-|
口⑦口口 |⑤-⑥-|
口口⑥口 |⑦-⑧-|
61
①口口口 |①---|
口②⑥⑤ |②-③-|
口口③口 |④---|
口④口口 |⑤-⑥-|
62
①②口③ |①-②-|
口④⑦口 |③-④-|
⑧口⑤口 |⑤-⑥-|
口⑥口口 |⑦-⑧-|
63
①③口口 |①---|
①口口口 |----|
口口②口 |----|
口口口口 |②-③-|
64
口口⑤口 |①-②-|
④⑧口① |③-④-|
⑥口⑦口 |⑤-⑥-|
口②③口 |⑦-⑧-|
65
口口⑦① |①-②-|
⑥口口口 |③-④-|
口②口⑧ |⑤-⑥-|
口④⑤③ |⑦-⑧-|
66
⑥口口口 |①-②-|
⑤②④口 |③-④-|
口①③⑦ |⑤-⑥-|
口口口⑧ |⑦-⑧-|
67
口⑦口口 |--①②|
口①口④ |③-④-|
⑤②口口 |⑤-⑥-|
口③⑥口 |⑦---|
68
口⑧⑦口 |①-②-|
③②①口 |③-④-|
口④⑤⑥ |⑤-⑥-|
口口口口 |⑦-⑧-|
69
①口口口 |①---|
口②口口 |②-③-|
口口③⑤ |④---|
口④口口 |--⑤-|
70
⑤口②口 |①---|
⑥③口口 |②---|
口④口口 |③-④-|
口口口① |⑤-⑥-|
71
口①口③ |①---|
口口②口 |②---|
口③口① |③---|
口口口口 |----|
72
①口⑦口 |①-②-|
②口口⑥ |③-④-|
③口口⑤ |⑤-⑥-|
口口口④ |⑦---|
73
①口口口 |①---|
口口②口 |②-③-|
⑤③口口 |④---|
口口④口 |--⑤-|
74
口①②口 |①---|
口③口② |②---|
④口③口 |③---|
口④口口 |④---|
75
①口口② |①---|
口口③口 |②-③-|
口口④口 |④---|
口口口口 |----|
76
⑧⑦①② |①-②-|
⑦口③① |③-④-|
④⑥口⑦ |⑤-⑥-|
⑤④⑦⑧ |⑦-⑧-|
77
口口④④ |①---|
⑥①⑥② |②-③-|
③口①口 |④---|
口⑤口口 |⑤-⑥-|
78
⑤①口③ |①---|
⑥②口④ |②---|
⑤①口③ |③-④-|
口口口口 |⑤-⑥-|
79
⑥③①口 |①-②-|
⑦⑤口口 |③-④-|
口口②④ |⑤---|
口①③口 |⑥-⑦-|
80
⑧⑦①② |①-②-|
⑦口③① |③-④-|
④⑥口⑦ |⑤-⑥-|
⑤④⑦⑧ |⑦-⑧-|
81
口口②③ |①---|
口①③② |②-③-|
口口①口
口口口口

口口口口
口⑥口口
⑤④口口 |④---|
口口口口 |⑤-⑥-|
82
①口④② |①---|
②口⑤口 |②---|
口③③① |③---|
口口口口 |④-⑤-|
83
①①口口 |①---|
②③④口 |----|
口口③口 |②-③-|
口口②口 |④---|
84
⑥①口③ |①-②-|
④⑦口② |③-④-|
口①⑦③ |⑤---|
口⑤⑤⑥ |⑥-⑦-|
85
口口口③ |①---|
②口①① |②-③-|
①①口② |④---|
③④④口 |----|
86
①口口③ |①-②-|
口④②口 |③-④-|
①口口③
口口口口

⑦⑤口口
⑦口口口
口口口口 |⑤-⑥-|
口口⑥口 |--⑦-|
87
口口④口 |--①-|
口⑤②口 |②-③-|
口①⑥③ |④-⑤-|
口口口口 |⑥---|
88
口口口口 |①-②-|
①口③口 |③-④-|
口②口④
①口③口

⑦⑤口口
⑦口口口
口口口口 |⑤-⑥-|
口⑥口口 |--⑦-|
89
口口⑨口 |--①-|
口⑧口② |②-③-|
①⑥⑦口 |④⑤⑥⑦|
口④⑤③ |⑧-⑨-|
90
③口口① |①-②-|
⑦⑦②④ |③-④-|
③口⑥① |⑤-⑥-|
口⑤口口 |--⑦-|
91
⑦口⑤④ |--①-|
口⑥②④ |②-③-|
口①口③ |④-⑤-|
口口②口 |⑥-⑦-|
92
口③口口 |①-②-|
口⑦②⑥ |③-④-|
⑤①⑧口 |⑤-⑥-|
口口④口 |⑦-⑧-|
93
③②①口 |--①-|
④⑦⑥⑤ |②-③-|
⑤⑥⑦④ |④-⑤-|
口①②③ |⑥-⑦-|

accuracy: 100%
最終更新:2022年04月18日 18:30