アットウィキロゴ
Puberty Dysthymia
BEMANI Sound Team "person09"

BASIC

Level: 4
BPM: 70-210
Notes: 202

1
口口口口 |(140)----|
口口口口 |----|
口口口口 |----|
口口口口

口口口口
口口口口 |----|
口口口口 |----|
口口口口 |----|
2
口口口口 |①---|
口口口口 |----|
口口口口 |----|
口口口①

口口口口
口口口口 |----|
口口口口 |----|
口口口口 |----|
3
口口口口 |①---|
口口口口 |----|
口口口口 |----|
口口口口

口口口口
口口口口 |(138)----|
口口口口 |(136)----|
①口口口 |(134)----|
4
口口口口 |(136)①---|
口口口口 |(138)----|
口口①口 |(140)----|
口口口口

口口口口
口口口口 |(142)②---|
口②口口 |(144)----|
口口口口 |(146)----|
5
口口口口 |(148)①---|
口口①口 |(150)----|
口口口口 |(152)----|
口口口口

口口口口
口②口口 |(154)②---|
口口口口 |(156)----|
口口口口 |(158)----|
6
口口口口 |(160)①---|
①口口① |----|
口口口口 |(150)----|
口口口口

口口口口
口口口口 |(140)②---|
口②②口 |----|
口口口口 |----|
7
口口口口 |(210)①---|
口口口口 |----|
①口口① |----|
口口口口
8
口口口口 |①---|
口口口口 |----|
口口口口 |----|
口①①口 |----|
9
口口口口 |①---|
①口口① |----|
口口口口 |----|
口口口口
10
口口口口 |①---|
口口口口 |----|
口①①口 |----|
口口口口
11
口口口口 |----|
口口口口 |----|
口口口口
口口口口
12
口口口口 |①---|
口口口口 |----|
①口口① |----|
口口口口
13
口口口口 |①---|
口口口口 |----|
口口口口 |----|
口①①口 |----|
14
口口口口 |①---|
①口口① |----|
口口口口 |----|
口口口口
15
口口口口 |①---|
口口口口 |----|
口①①口 |----|
口口口口
16
口口口口 |----|
口口口口 |----|
口口口口
口口口口
17
口口口口 |①---|
口口口口 |----|
①①①① |----|
口口口口
18
口口口口 |①---|
口口口口 |----|
口口口口 |----|
口①①口 |----|
19
口口口口 |①---|
①①①① |----|
口口口口 |----|
口口口口
20
口口口口 |①---|
口口口口 |----|
口①①口 |----|
口口口口
21
口口口口 |----|
口口口口 |----|
口口口口
口口口口
22
口口口口 |①---|
口口口口 |----|
①①①① |----|
口口口口
23
口口口口 |①---|
口口口口 |----|
口口口口 |----|
口①①口 |----|
24
口口口口 |①---|
①①①① |----|
口口口口 |----|
口口口口
25
口口口口 |①---|
口口口口 |----|
口①①口 |----|
口口口口
26
①①①① |①---|
口口口口 |----|
口口口口 |----|
口口口口
27
口口口口 |①---|
口①①口 |----|
口口口口 |----|
口口口口
28
口口口口 |----|
口口口口 |----|
口口口口 |----|
口口口口
29
口口口口 |----|
口口口口 |----|
口口口口 |----|
口口口口 |----|
30
口口口口 |----|
口口口口 |----|
口口口口 |----|
口口口口 |----|
31
口口口口 |----|
口口口口 |----|
口口口口 |----|
口口口口 |----|
32
口口口口 |----|
口口口口 |----|
口口口口 |----|
口口口口 |----|
33
口口口口 |①---|
口口口口 |----|
口①①口
口口口口
34
口口口口 |①---|
①口口① |----|
口口口口 |②---|
②口口② |----|
35
①口口① |①---|
口口口口 |----|
口口口口 |②---|
②口口② |----|
36
口口口口 |①---|
口①①口 |----|
口①①口 |----|
口口口口 |----|
37
口口口口 |①---|
口①①口 |----|
口①①口 |----|
口口口口 |----|
38
口口口口 |①---|
口①①口 |----|
口①①口 |----|
口口口口 |----|
39
口口口① |①---|
口口口口 |----|
口口口口 |----|
口口口口

口口口口
口口口口 |----|
口口口口 |----|
口口口口 |----|
40
①口口口 |①---|
口口口口 |----|
口口口口 |----|
口口口口

口口口口
口口口口 |----|
口口口口 |----|
口口口口 |----|
41
口口口口 |①---|
口①①口 |----|
口口口口 |----|
口口口口

口口口口
口口口口 |----|
口口口口 |----|
口口口口 |----|
42
口口口口 |①---|
①口口① |----|
口口口口 |----|
口口口口

口口口口
口口口口 |----|
口口口口 |----|
口口口口 |----|
43
口口②① |①---|
口口口口 |----|
口口口口 |②---|
口口口口 |----|
44
②①口口 |①---|
口口口口 |----|
口口口口 |②---|
口口口口 |----|
45
口口口口 |①---|
①②口口 |----|
口口口口 |②---|
口口口口 |----|
46
口口口口 |①---|
口口口口 |----|
口①①口
口口口口
47
口口口口 |①---|
口口口口 |----|
口口口口 |②---|
口口②① |----|
48
口口口口 |①---|
口口口口 |----|
口口口口 |②---|
②①口口 |----|
49
口口口口 |①---|
口口口口 |----|
①②口口 |②---|
口口口口 |----|
50
口口口口 |①---|
口口口口 |----|
口口①② |②---|
口口口口 |----|
51
口口口口 |①---|
①口口① |----|
口口口口 |----|
口口口口 |----|
52
口①①口 |①---|
口口口口 |----|
口口口口 |----|
口口口口 |----|
53
①口口① |①---|
口口口口 |----|
口口口口 |----|
口口口口 |----|
54
口口口口 |①---|
口口口① |----|
口口口口 |----|
口口口口
55
口口口口 |----|
口口口口 |----|
口口口口 |----|
口口口口
56
口口口口 |①---|
口口①口 |----|
口口口口 |----|
口口口口
57
口口口口 |----|
口口口口 |----|
口口口口
口口口口
58
口口口口 |①---|
①口口口 |----|
口口口口 |----|
口口口口
59
口口口口 |----|
口口口口 |----|
口口口口 |----|
口口口口
60
口口口口 |①---|
口①口口 |----|
口口口口 |----|
口口口口
61
口口口口 |----|
口口口口 |----|
口口口口 |----|
口口口口
62
口口口口 |①---|
口口口口 |----|
口口口① |----|
口口口口
63
口口口口 |----|
口口口口 |----|
口口口口 |----|
口口口口
64
口口口口 |①---|
口口口口 |----|
口口①口 |----|
口口口口
65
口口口口 |----|
口口口口 |----|
口口口口
口口口口
66
口口口口 |①---|
口口口口 |----|
①口口口 |----|
口口口口
67
口口口口 |----|
口口口口 |----|
口口口口 |----|
口口口口
68
口口口口 |①---|
口口口口 |----|
口①口口 |----|
口口口口
69
口口口口 |----|
口口口口 |----|
口口口口 |----|
口口口口
70
口口口口 |①---|
口口口口 |----|
口口口口 |----|
口①①口
71
口口口口 |----|
口口口口 |----|
口口口口 |----|
口口口口
72
口口口口 |①---|
口口口口 |----|
口①①口 |----|
口口口口
73
口口口口 |----|
口口口口 |----|
口口口口 |----|
口口口口
74
口口口口 |①---|
口①①口 |----|
口口口口 |----|
口口口口
75
口口口口 |----|
口口口口 |----|
口口口口 |----|
口口口口
76
口①①口 |①---|
口口口口 |----|
口口口口 |----|
口口口口
77
①口口① |----|
口口口口 |①---|
口口口口 |----|
口口口口
78
口口口口 |--(200)--|
口口口口 |(190)--(180)--|
口口口口 |(170)--(160)--|
口口口口
79
口口口口 |(210)①---|
口口口③ |②---|
口口口② |③---|
口口口①
80
口口口口 |①---|
③口口口 |②---|
②口口口 |③---|
①口口口
81
口口口口 |①---|
口口③口 |②---|
口口②口 |③---|
口口①口
82
口口口口 |①---|
口③口口 |②---|
口②口口 |③---|
口①口口
83
口口口① |①---|
口口口② |②---|
口口口③ |③---|
口口口口
84
①口口口 |①---|
②口口口 |②---|
③口口口 |③---|
口口口口
85
口口①口 |①---|
口口②口 |②---|
口口③口 |③---|
口口口口
86
口①口口 |①---|
口②口口 |②---|
口③口口 |③---|
口口口口
87
口口口口 |①---|
口口口口 |----|
口口口口 |----|
①口口①
88
口口口口 |①---|
口口口口 |----|
①口口① |----|
口口口口
89
口口口口 |①---|
①口口① |----|
口口口口 |----|
口口口口
90
①口口① |①---|
口口口口 |----|
口口口口 |----|
口口口口
91
口①①口 |①---|
口口口口 |----|
口口口口 |----|
口口口口
92
口口口口 |①---|
口①①口 |----|
口口口口 |----|
口口口口
93
口口口口 |①---|
口口口口 |----|
口①①口 |----|
口口口口
94
口口口口 |①---|
口口口口 |----|
口口口口 |----|
口①①口
95
口口口口 |①---|
①口口① |----|
①口口① |----|
口口口口
96
口口口口 |----|
口口口口 |----|
口口口口 |----|
口口口口
97
口口口口 |①---|
①①①① |----|
口口口口 |----|
口口口口
98
口口口口 |①---|
口口口口 |----|
口①①口 |----|
口口口口 |----|
99
①①①① |①---|
口口口口 |----|
口口口口 |----|
口口口口
100
口口口口 |①---|
口①①口 |----|
口口口口 |----|
口口口口
101
口口口口 |----|
口口口口 |----|
口口口口
口口口口
102
口口口口 |①---|
口口口口 |----|
①①①① |----|
口口口口
103
口口口口 |①---|
口口口口 |----|
口口口口 |----|
口①①口
104
口口口口 |①---|
①①①① |----|
口口口口 |----|
口口口口
105
口口口口 |①---|
口口口口 |----|
口①①口 |----|
口口口口
106
①①①① |①---|
口口口口 |----|
口口口口 |----|
口口口口
107
口口口口 |①---|
口①①口 |----|
口口口口 |----|
口口口口
108
口口口口 |----|
口口口口 |----|
口口口口 |----|
口口口口 |----|
109
口口口口 |①---|
口口口口 |----|
口①①口 |----|
口①①口

accuracy: 100%
最終更新:2024年08月11日 08:50