アットウィキロゴ
Puberty Dysthymia
BEMANI Sound Team "person09"

ADVANCED

Level: 7
BPM: 70-210
Notes: 520

1
口口口口 |(140)----|
口口口口 |----|
口口口口 |----|
口口口口

口口口口
口口口口 |----|
口口口口 |----|
口口口口 |----|
2
口口口口 |①---|
口口口③ |②---|
②口口口 |③---|
口口口①

④口⑤口
口⑥口口 |④---|
口口口口 |⑤---|
口口口口 |⑥---|
3
口口口口 |①---|
口口口口 |----|
口口①口 |②---|
②口口口

口口口⑤
④口口口 |(138)③---|
口口口③ |(136)④---|
口口口口 |(134)⑤---|
4
口口口口 |(136)①---|
口口口口 |(138)②---|
①②③口 |(140)③---|
口口口口

口口口口
口口口口 |(142)④---|
口口口口 |(144)⑤---|
口⑥⑤④ |(146)⑥---|
5
①②③口 |(148)①---|
口口口口 |(150)②---|
口口口口 |(152)③---|
口口口口

口口口口
口⑥⑤④ |(154)④---|
口口口口 |(156)⑤---|
口口口口 |(158)⑥---|
6
①口口① |(160)①---|
口口口口 |----|
口口②口 |(150)②---|
口口口口

③③③③
口口口口 |(140)③---|
口口口口 |----|
口口口口 |----|
7
口口口口 |(210)①---|
②①①② |--②-|
②①①② |----|
口口口口
8
②④③① |①---|
口口口口 |②---|
口口口口 |③---|
①③④② |④---|
9
口口口口 |①---|
口口口口 |--②-|
②②①① |----|
口口口口
10
①口口① |①---|
口①①口 |----|
口口口口 |----|
口口口口
11
口口口口 |----|
口口口口 |----|
口口口口
口口口口
12
口口口口 |①---|
②①①② |--②-|
②①①② |----|
口口口口
13
①③④② |①---|
口口口口 |②---|
口口口口 |③---|
②④③① |④---|
14
口口口口 |①---|
口口口口 |--②-|
①①②② |----|
口口口口
15
口①①口 |①---|
①口口① |----|
口口口口 |----|
口口口口
16
口口口口 |----|
口口口口 |----|
口口口口
口口口口
17
口口口口 |①---|
②口口① |--②-|
口口口口 |----|
②口口①
18
口口口口 |①---|
④③③④ |②---|
②①①② |③---|
口口口口 |④---|
19
②②①① |①---|
口口口口 |--②-|
口口口口 |----|
口口口口
20
口口口口 |①---|
口口口口 |----|
口①①口 |----|
口①①口
21
口口口口 |----|
口口口口 |----|
口口口口
口口口口
22
口口口口 |①---|
②口口① |--②-|
口口口口 |----|
②口口①
23
口口口口 |①---|
④③③④ |②---|
②①①② |③---|
口口口口 |④---|
24
②口口① |①---|
口口口口 |--②-|
口②①口 |----|
口口口口
25
口口口口 |①---|
①①口口 |②---|
口口②② |③---|
③③口口
26
②②①① |①---|
②②①① |②---|
口口③③ |③---|
口口③③
27
口口口口 |①---|
口口口口 |----|
①①口口 |----|
①①口口
28
口口口口 |----|
口口口口 |----|
口口口口 |----|
口口口口
29
口口口口 |----|
口口口口 |----|
口口口口 |----|
口口口口 |----|
30
⑤口口① |①---|
口②口口 |②-③-|
口口③口 |④---|
口④口口 |⑤---|
31
⑤口口① |①---|
口②口口 |②-③-|
口口③口 |④---|
口④口口 |⑤---|
32
⑧口口⑦ |①-②-|
⑥口口⑤ |③-④-|
④口口③ |⑤-⑥-|
②口口① |⑦-⑧-|
33
口①②口 |①---|
口口口口 |②---|
口口口口
②口口①
34
口口口口 |①---|
②②②② |----|
①①①① |②---|
口口口口 |----|
35
②②②② |①---|
口口口口 |----|
口口口口 |②---|
①①①① |----|
36
口口口口 |①---|
口口口② |----|
口口口口 |②---|
口①①口 |----|
37
口口口口 |①---|
②口口口 |----|
口①①口 |②---|
口口口口 |----|
38
③口口③ |①---|
口口口口 |----|
②口口② |②---|
口①①口 |③---|
39
口②①口 |①---|
口②①口 |----|
口口口口 |②---|
口口口口

口口口口
口口口口 |----|
口口③口 |③---|
口口③口 |----|
40
口口口口 |①---|
②口口② |----|
口①口口 |②---|
口①口口

口③③口
口口口口 |----|
口口口口 |③---|
口口口口 |----|
41
口口口口 |①---|
口口口口 |----|
口③口口 |②-③-|
①②口①

口⑧口⑨
⑥口⑦口 |④-⑤-|
口口④⑤ |⑥-⑦-|
口口口口 |⑧-⑨-|
42
口口口口 |①---|
口口口口 |----|
口②②口 |②---|
①口口①

口口口口
口口口口 |----|
口口口口 |----|
口口口口 |----|
43
⑤口口① |①---|
口②口口 |②-③-|
口口③口 |④---|
口④口口 |⑤---|
44
⑤口口① |①---|
口②口口 |②-③-|
口口③口 |④---|
口④口口 |⑤---|
45
口口口口 |①-②-|
口口口口 |③-④-|
④⑧⑦③ |⑤-⑥-|
②⑥⑤① |⑦-⑧-|
46
②②口口 |①---|
口口①① |②---|
口口口口
口口口口
47
⑤口口① |①---|
口②口口 |②-③-|
口口③口 |④---|
口④口口 |⑤---|
48
⑤口口① |①---|
口②口口 |②-③-|
口口③口 |④---|
口④口口 |⑤---|
49
口口口口 |①-②-|
口口口口 |③-④-|
④⑧⑦③ |⑤-⑥-|
②⑥⑤① |⑦-⑧-|
50
④⑧⑦③ |①-②-|
②⑥⑤① |③-④-|
口口口口 |⑤-⑥-|
口口口口 |⑦-⑧-|
51
⑥口口⑥ |①-②-|
⑤口口⑤ |③-④-|
口④③口 |⑤---|
口②①口 |⑥---|
52
口②①口 |①---|
口口口口 |----|
①口口② |②---|
口口口口 |----|
53
口口口口 |①---|
口口口口 |----|
③②②③ |②---|
①口口① |③---|
54
②②①① |①---|
口口口口 |--②-|
口口口口 |----|
口口口口
55
口口口口 |①---|
口②①口 |②---|
②口口① |③---|
口③③口
56
②②①① |①---|
口口口口 |--②-|
口口口口 |----|
口口口口
57
口口口口 |①---|
口口口口 |②---|
口①①口
口②②口
58
②②①① |①---|
口口口口 |--②-|
口口口口 |----|
口口口口
59
口口口口 |①---|
口②①口 |②---|
②口口① |③---|
口③③口
60
②②①① |①---|
口口口口 |--②-|
口口口口 |----|
口口口口
61
口口口口 |①---|
②口口③ |②---|
②①①③ |③---|
口口口口
62
口口口口 |①---|
口口口口 |--②-|
口口口口 |----|
②②①①
63
口③③口 |①---|
②口口① |②---|
口②①口 |③---|
口口口口
64
口口口口 |①---|
口口口口 |--②-|
口口口口 |----|
②②①①
65
口②②口 |①---|
口①①口 |②---|
口口口口
口口口口
66
口口口口 |①---|
口口口口 |--②-|
口口口口 |----|
②②①①
67
口③③口 |①---|
②口口① |②---|
口②①口 |③---|
口口口口
68
口口口口 |①---|
口口口口 |--②-|
口口口口 |----|
②②①①
69
口口口口 |①---|
②①①③ |②---|
②口口③ |③---|
口口口口
70
①口②② |①---|
口口口口 |②---|
口口口口 |----|
口口口口
71
口口口口 |①---|
②②口① |②---|
口口口口 |----|
口口口口
72
口口口口 |①---|
口口口口 |②---|
①口②② |----|
口口口口
73
口口口口 |①---|
口口口口 |②---|
口口口口 |③---|
③②①口
74
②②口① |①---|
口口口口 |②---|
口口口口 |----|
口口口口
75
口口口口 |①---|
①口②② |②---|
口口口口 |----|
口口口口
76
口口口口 |①---|
口口口口 |②---|
②②口① |----|
口口口口
77
口口口口 |----|
①口口① |①---|
口口口口 |----|
口①①口
78
口口口口 |--(200)--|
口口口口 |(190)--(180)--|
口口口口 |(170)--(160)--|
口口口口
79
口口口口 |(210)①---|
口口口③ |②---|
口口口② |③---|
口口口①
80
口口口口 |①---|
③口口口 |②---|
②口口口 |③---|
①口口口
81
口口口口 |①---|
口口口③ |②---|
口口口② |③---|
口口口①
82
⑤口⑥口 |①-②-|
③口④口 |③-④-|
①口②口 |⑤-⑥-|
口口口口
83
口口口口 |①---|
③口口口 |②---|
②口口口 |③---|
①口口口
84
口口口口 |①---|
口口口③ |②---|
口口口② |③---|
口口口①
85
口口口口 |①---|
③口口口 |②---|
②口口口 |③---|
①口口口
86
口口⑤口 |①-②-|
口④口③ |③-④-|
口②口① |⑤---|
口口口口
87
①口口口 |①---|
口口口口 |----|
口③口口 |②-③-|
口口②口
88
②口口口 |①---|
②口①① |②---|
口口口③ |③---|
口口口③
89
口口口口 |①---|
口口③口 |----|
口②口口 |②-③-|
①①口口
90
①①口② |①---|
③口口② |②---|
③口口口 |③---|
口口口口
91
口口口口 |①-②-|
口口口口 |③-④-|
口口口⑤ |⑤---|
①②③④
92
口口口⑤ |①-②-|
①②③④ |③-④-|
口口口口 |⑤---|
口口口口
93
口口口口 |①-②-|
口口口口 |③-④-|
⑥⑤④口 |⑤-⑥-|
口①②③
94
⑥⑤④口 |①-②-|
口①②③ |③-④-|
口口口口 |⑤-⑥-|
口口口口
95
口口口① |①---|
口口口口 |----|
口口口口 |----|
口口口口
96
口口口口 |①---|
口口口口 |----|
口口口口 |----|
①①①①
97
口口口口 |①---|
②①①② |--②-|
②①①② |----|
口口口口
98
②④③① |①---|
口口口口 |②---|
口口口口 |③---|
①③④② |④---|
99
口口口口 |①---|
口口口口 |--②-|
②②①① |----|
口口口口
100
①口口① |①---|
口①①口 |----|
口口口口 |----|
口口口口
101
口口口口 |----|
口口口口 |----|
口口口口
口口口口
102
口口口口 |①---|
口口口口 |--②-|
②口口① |----|
②②①①
103
口③②① |①---|
口③②① |②---|
口口口口 |③---|
口口口口
104
口口口口 |①---|
口口口口 |--②-|
①口口② |----|
①①②②
105
①②③口 |①---|
①②③口 |②---|
口口口口 |③---|
口口口口
106
口口口口 |①---|
③口口③ |②---|
②口口② |③---|
口①①口
107
①①①① |①---|
口口口口 |----|
口口口口 |----|
口口口口
108
口口口口 |----|
口口口口 |----|
口口口口 |----|
口口口口 |----|
109
②口口② |①---|
口②②口 |--②-|
口口口口 |----|
①①①①

accuracy: 100%
最終更新:2024年08月11日 09:29