アットウィキロゴ
Puberty Dysthymia
BEMANI Sound Team "person09"

EXTREME

Level: 10.5
BPM: 70-210
Notes: 840

1
口口口口 |(140)----|
口口口口 |----|
口口口口 |----|
口口口口

①②③口
口口口口 |----|
口口口口 |----|
口口口口 |-----①②③|
2
口口口① |①---|
口口③口 |②---|
②口口口 |③---|
口口口口

⑤口口口
口口口⑥ |④---|
口口口口 |⑤---|
口④口口 |⑥---|
3
②口口口 |①---|
口口口口 |----|
口口口口 |②---|
①口口①

口口口口
口口口③ |(138)③---|
④口口口 |(136)④---|
口口口⑤ |(134)⑤---|
4
口口口① |(136)①-②-|
口口②口 |(138)③-④-|
口③口口 |(140)⑤-⑥-|
④⑤⑥口

⑦口口口
口⑧口口 |(142)⑦-⑧-|
口口⑨口 |(144)⑨-⑩-|
口⑫⑪⑩ |(146)⑪-⑫-|
5
口口口① |(148)①-②-|
口口②口 |(150)③-④-|
口③口口 |(152)⑤-⑥-|
④口⑤⑥

口口⑪⑫
⑨⑩口口 |(154)⑦-⑧-|
口口⑧⑦ |(156)⑨-⑩-|
口口口口 |(158)⑪-⑫-|
6
①口口口 |(160)①---|
口口口口 |----|
口②口口 |(150)②---|
口口口口

口口③口
口口口③ |(140)③---|
口口口口 |----|
口④口口 |④---|
7
①口口口 |(210)①---|
口①口② |--②-|
①口②口 |----|
口口口②
8
④口口③ |①---|
④口③口 |②---|
口②口① |③---|
②口①口 |④---|
9
口②②口 |①---|
口口口口 |--②-|
①口口① |----|
口口口口
10
口口口口 |①---|
⑨⑧⑦⑥ |②③④⑤|
②③④⑤ |⑥⑦⑧⑨|
①口口①
11
口③口① |①-②-|
口口口口 |③-④-|
口口口口
④口②口
12
①口①口 |①---|
口口口② |--②-|
①口口口 |----|
口②口②
13
口③②① |①---|
③②①口 |②---|
口口口口 |③---|
口④④口 |④---|
14
①口口④ |①-②-|
口⑥⑤口 |③-④-|
①②③④ |⑤-⑥-|
④口口①
15
口①口口 |①---|
④口⑦① |②-③-④-|
③口⑥口 |⑤-⑥-⑦-|
口②①⑤
16
①口④口 |①-②-③-|
口②口⑤ |④-⑤-⑥-|
口③口⑥
口口口口
17
口口口口 |①②------|
口口口口 |----③④--|
口口口口 |----|
②①③④
18
口③口口 |①②------|
②①①② |③---|
⑥⑤③④ |④---|
口④口口 |⑤⑥------|
19
①口口② |①---|
②①②① |--②-|
口口口口 |----|
②口口①
20
口口①口 |①---|
口⑤口口 |②③--|
①④③① |④⑤--|
口①②口
21
②③④⑤ |①②③④|
①口口口 |⑤---|
口口口口
口口口口
22
口口口口 |①②------|
口口口口 |----③④--|
口口口口 |----|
④③①②
23
④③③④ |①②------|
②①①② |③---|
口③③口 |④---|
⑤口口⑤ |⑤---|
24
④③③④ |①②------|
②①①② |----③④--|
口口口口 |----|
口口口口
25
口口口口 |①②③④|
⑥⑤⑤⑤ |⑤---|
⑥④③口 |⑥---|
⑥②①口
26
③口口① |①---|
口口口口 |②---|
口③口① |③---|
口②②口
27
口①①口 |①---|
①口口① |----|
口口口口 |②-③-④-|
口②③④
28
⑦⑧⑨口 |①-②-③-|
口④⑤⑥ |④-⑤-⑥-|
①②③口 |⑦-⑧-⑨-|
口口口口
29
口口口① |①---|
口口口口 |----|
口口口口 |----|
口口口口 |----|
30
①⑤口口 |①---|
口口②口 |②-③-|
口③口口 |④---|
口口④口 |⑤---|
312
⑤口口① |①---|
口口②口 |②-③-|
口③口口 |④---|
口口④口 |⑤---|
32
口③①② |①-②-|
⑦口口⑥ |③-④-|
⑧口口口 |⑤-⑥-|
口④口⑤ |⑦-⑧-|
33
口②口② |①---|
口①口口 |②---|
口口②口
①口①口
34
①⑤口口 |①---|
口口②口 |②-③-|
口③口① |④---|
④④④① |⑤---|
35
⑤口口① |①---|
①口②口 |②-③-|
①③④④ |④---|
口口④口 |⑤---|
36
口④⑧① |①-②-|
③口口⑦ |③-④-|
②口口⑥ |⑤-⑥-|
①①口⑤ |⑦-⑧-|
37
⑤④⑧口 |①-②-|
③口口⑦ |③-④-|
②口口⑥ |⑤-⑥-|
①口⑤⑤ |⑦-⑧-|
38
⑤④口④ |①-②-|
③③⑥⑥ |③-④-|
②②⑤口 |⑤---|
①①⑥⑤ |⑥---|
39
②口①② |①---|
②口口口 |----|
口口口口 |②---|
①①口口

口③口口
口③③口 |----|
③口③口 |③---|
口口口③ |----|
40
②口①① |①---|
口②②① |----|
②①口② |②---|
①①②口

口口③口
③口口③ |----|
口③口口 |③---|
口口口口 |----|
41
口口口③ |①---|
口口②③ |----|
口口口口 |②-③-|
①口②①

⑤口口口
⑤④口口 |④-⑤-|
⑧⑨⑦⑥ |⑥-⑦-|
口④口口 |⑧-⑨-|
42
④口口② |①-②-|
④口口② |--③-|
口口口口 |④---|
③口口①

口⑨⑭口
口⑫⑦口 |⑤⑥⑦⑧|
⑩⑧⑬⑤ |⑨-⑩⑪|
口⑪⑥口 |⑫⑬⑭-|
43
口口口① |①---|
②口口① |②-③-|
⑤③口⑤ |④---|
口口④口 |⑤---|
44
①①口口 |①---|
⑤口②⑤ |②-③-|
口③口口 |④---|
④口口口 |⑤---|
45
⑧口口④ |①-②-|
口⑦③口 |③-④-|
口⑥②口 |⑤-⑥-|
口⑤①口 |⑦-⑧-|
46
口①①口 |①---|
口口口① |②---|
口口口口
口口②②
47
口口口口 |①---|
①口②⑤ |②-③-|
①③口口 |④---|
④⑤口口 |⑤---|
48
口②口⑤ |①---|
口口③口 |②-③-|
⑤口口④ |④---|
口口①① |⑤---|
49
④口口⑧ |①-②-|
④③⑦③ |③-④-|
⑦②⑥⑧ |⑤-⑥-|
⑤①⑤① |⑦-⑧-|
50
④⑦口⑧ |①-②-|
④③⑦③ |③-④-|
口②⑥口 |⑤-⑥-|
⑤①⑤① |⑦-⑧-|
51
④口口⑧ |①-②-|
⑦③⑦③ |③-④-|
⑤②⑥③ |⑤-⑥-|
口①⑤① |⑦-⑧-|
52
③②口口 |①---|
口口口口 |②-③-|
④⑤口④ |④---|
①⑥口① |⑤-⑥-|
53
⑤⑥⑥④ |①---|
①口口① |②-③-|
⑤口口④ |④-⑤-|
口口②③ |⑥---|
54
口口口口 |①---|
①口口① |--②-|
口①①口 |----|
②口口②
55
②口口① |①---|
口口口口 |②---|
②口口① |③---|
口③③口
56
口①①口 |①---|
①口口① |--②-|
口口口口 |----|
②口口②
57
②口口① |①---|
口口口口 |②---|
②口口①
口①②口
58
口口口口 |①---|
①口口① |--②-|
口①①口 |----|
②口口②
59
②口口① |①---|
口口口口 |②---|
②口口① |③---|
口③③口
60
口①口口 |①---|
②口口① |--②-|
口口口口 |----|
口口口②
61
⑨口口⑨ |①②③④|
口口⑧⑦ |⑤⑥⑦⑧|
④③⑥⑤ |⑨---|
②①口口
62
口口②口 |①---|
①口口口 |--②-|
口②口口 |----|
②口①①
63
①口口② |①---|
口口口口 |②---|
①口口② |③---|
口③③口
64
口口口口 |①---|
②①②① |--②-|
口①②口 |----|
①口口②
65
①口口② |①---|
口口口口 |②---|
①口口②
口②①口
66
口口①口 |①---|
口口②① |--②-|
口①口口 |----|
②口口②
67
①口口② |①---|
口口口口 |②---|
①口口② |③---|
口③③口
68
口①②口 |①---|
①①口② |--②-|
口口口口 |----|
②口口口
69
⑨口口⑨ |①②③④|
⑦⑧口口 |⑤⑥⑦⑧|
⑤⑥③④ |⑨---|
口口①②
70
口①①口 |①---|
口口口口 |②-③-|
口口口口 |④---|
口②③④
71
④口③口 |①---|
①口口口 |②-③-|
口①口② |④---|
①口口口
72
口③口④ |①---|
口口口① |②-③-|
②口①口 |④---|
口口口①
73
口口口口 |①②③④|
⑨口口⑨ |⑤⑥⑦⑧|
⑧⑦⑥⑤ |⑨---|
①②③④
74
口①①口 |①---|
口口口口 |②-③-|
口口口口 |④---|
口②③④
75
④口③口 |①---|
①口口口 |②-③-|
口①口② |④---|
①口口口
76
口③口④ |①---|
口⑤口① |②-③-|
②⑥①口 |④-⑤⑥|
口口口①
77
口口口口 |①---|
②口⑥② |②-③④|
口口口⑤ |⑤-⑥-|
口①④③
78
口口①口 |①-(200)②-|
口②口口 |(190)③-(180)④-|
⑥口③口 |(170)⑤-(160)⑥-|
口④口⑤
79
①④②① |(210)①---|
口口口口 |②-③-|
口口口③ |④---|
口口口口
80
口口口口 |①-②-|
②④口口 |③-④-|
口口口口 |⑤---|
①③⑤①
81
③④②① |①---|
口口口口 |②-③-|
口口口口 |④---|
口口口口
82
口口口口 |①-②-|
③⑥③⑥ |③-④-|
⑤②⑤② |⑤-⑥-|
①④①④
83
①④②① |①---|
口口口口 |②-③-|
口口口③ |④---|
口口口口
84
口口口口 |①-②-|
②④口⑤ |③-④-|
③口口口 |⑤---|
①③⑤①
85
①④②① |①---|
口口口口 |②-③-|
口口口③ |④---|
口口口口
86
口口口⑤ |①-②-|
①口⑤口 |③-④-|
②④③口 |⑤---|
③①②④
87
①①①口 |①---|
③口口口 |----|
口口口口 |②-③-|
②口口口
88
②③②③ |①---|
口口口口 |②---|
③②③② |③---|
口①①①
89
口口口口 |①---|
口①①① |----|
口②口③ |②-③-|
口口口口
90
口口①③ |①---|
口口口口 |②---|
②口口口 |③---|
③①②口
91
②①口口 |①-②-|
①②③口 |③-④-|
口③④⑤ |⑤---|
口口⑤④
92
⑤④③② |①-②-|
④口口① |③-④-|
③口口口 |⑤---|
②①口口
93
口口⑤⑥ |①-②-|
口④⑤⑥ |③-④-|
口③②① |⑤-⑥-|
④③②①
94
①②口口 |①-②-|
口口口口 |③-④-|
⑤⑥口⑤ |⑤-⑥-|
口⑤④③
95
口口①口 |①---|
①①口口 |----|
口口①口 |----|
口口口口
96
口口口口 |①---|
口口口口 |----|
口口口口 |----|
①①①①
97
①口口口 |①---|
口①口② |--②-|
①口②口 |----|
口口口②
98
口口口口 |①---|
④口③④ |②---|
③②④① |③---|
②③①口 |④---|
99
①口①① |①---|
口口口口 |--②-|
口②口② |----|
口口口②
100
⑤④③② |①---|
①口口① |②③④⑤|
⑥⑦⑧⑨ |⑥⑦⑧⑨|
①口口口
101
口口口口 |①-②-|
③①口口 |③-④-|
口口口口
口口②④
102
口⑤③① |①②③④|
口口④② |⑤-⑥⑦|
⑦⑨口口 |⑧⑨⑩-|
⑥⑧⑩口
103
口⑥⑥⑤ |①②③④|
③④口⑤ |⑤---|
口口②① |⑥---|
口口口口
104
③口口口 |①---|
口口①口 |②-③-|
口口⑦⑥ |④⑤⑥⑦|
①②⑤④
105
口⑨⑧⑦ |①②③④|
④③⑥⑤ |⑤⑥⑦⑧|
②①口口 |⑨---|
口⑨口口
106
②口口口 |①---|
口口③③ |②---|
③③口口 |③---|
①口②①
107
②口③口 |①---|
①①口口 |----|
口口①① |②-③-|
②口③口
108
口①口② |①-②-|
口口⑤④ |③-④-|
口⑥③口 |⑤-⑥-|
⑦①口② |⑦---|
109
①①口口 |①---|
①①口② |--②-|
①口②② |----|
口口②②

accuracy: 100%
最終更新:2024年08月11日 08:03