アットウィキロゴ
Life is beautiful
BEMANI Sound Team "猫叉Master"

EXTREME

Level: 10.2
BPM:155
Notes(hold): 833(31)

1
口口口口 |----|
口口口口 |----|
口口口口 |----|
口口口口 |----|
2
口口口口 |----|
口口口口 |----|
口口口口 |----|
口口口口 |----|
3
∨③口② |①---|
┃口口口 |②---|
①口口① |----|
口口口口 |③---|
4
口口口② |①---|
口口①口 |②---|
③口口口 |③---|
口口③口

口∨口口
口┃④口
口⑤口口
口口口口 |④-⑤-|
5
口②口① |----|
口口③口 |①---|
口口口口 |----|
口口口口 |②-③-|
6
③口①⑥ |----|
口④口② |①-②-|
口①⑤口 |③④⑤-|
口口口口 |⑥---|
7
∨口②口 |①---|
┃口口③ |②---|
①口④① |③---|
口口口口 |④---|
8
口∨②口 |①---|
口┃④③ |②---|
④⑤口口 |③---|
口①口① |④-⑤-|
9
∨口③① |①---|
⑤口口口 |②---|
口④④② |③---|
口口口口 |④-⑤-|
10
>③口① |①---|
②口②口 |②-③-|
口口口口
口口口口

口⑦口口
口口口⑤
口口口④ |④-⑤-|
口口⑥口 |⑥-⑦-|
11
③口口③ |①---|
口①①口 |②---|
⑤口口⑤ |③---|
②④④② |④-⑤-|
12
⑤②⑦④ |①-②③|
口⑥③① |④-⑤⑥|
口口口口 |⑦---|
口口口①

口口口口
⑨口口⑩
口口口口
口⑧口⑩ |⑧⑨⑩-|
13
口口口口 |①②③-|
口⑤②口 |④⑤⑥-|
④①⑥③
口口口口

口⑧口⑦
口口口口
口口口⑬ |⑦⑧⑨⑩|
⑫⑪⑩⑨ |⑪⑫⑬-|
14
①口口口 |①-②③|
④口②⑤ |④-⑤⑥|
①③⑥口
口口口口

口⑨⑧⑪
口⑦⑫口
口口口⑩ |⑦-⑧⑨|
口口口口 |⑩-⑪⑫|
15
②⑦⑦口 |①-②③|
⑤③口⑤ |④-⑤-|
口①④口 |⑥---|
口⑥⑥口 |⑦---|
16
口口口① |①-②③|
⑤②口④ |④-⑤⑥|
口⑥③①
口口口口

⑩口⑧口
口口⑦口
⑩口⑫⑨ |⑦-⑧⑨|
口⑪口口 |⑩-⑪⑫|
17
口口口口 |①-②③|
⑤口⑥口 |④-⑤⑥|
口③口口
②口④①

口⑦口口
口⑦口⑧
口⑪⑨⑪ |⑦-⑧⑨|
口⑩口口 |⑩-⑪-|
18
①口①口 |①---|
口③②口 |②③④⑤|
口口口口
口⑤④口

口口⑩⑥
⑩口口⑥
⑦⑧⑨口 |⑥-⑦⑧|
口口口口 |⑨-⑩-|
19
①①⑩口 |①-②③|
⑩⑤⑤口 |④-⑤-|
⑦⑨⑧⑥ |⑥⑦⑧⑨|
⑪④③② |⑩-⑪-|
20
⑤②⑦④ |①-②③|
口⑥③① |④-⑤⑥|
口口口口 |⑦---|
口口口①

口口口口
⑨口口⑩
口口口口
口⑧口⑩ |⑧⑨⑩-|
21
口口口口 |①②③-|
口⑤②口 |④⑤⑥-|
④①⑥③
口口口口

口⑧口⑦
口口口口
口口口⑬ |⑦⑧⑨⑩|
⑫⑪⑩⑨ |⑪⑫⑬-|
22
①口口口 |①-②③|
④口②⑤ |④-⑤⑥|
①③⑥口
口口口口

口⑨⑧⑪
口⑦⑫口
口口口⑩ |⑦-⑧⑨|
口口口口 |⑩-⑪⑫|
23
②⑦⑦口 |①-②③|
⑤③口⑤ |④-⑤-|
口①④口 |⑥---|
口⑥⑥口 |⑦---|
24
口口口① |①-②③|
⑤②口④ |④-⑤⑥|
口⑥③①
口口口口

⑩口⑧口
口口⑦口
⑩口⑫⑨ |⑦-⑧⑨|
口⑪口口 |⑩-⑪⑫|
25
口⑤口口 |①-②③|
口口⑥口 |④-⑤⑥|
口③口口
②口④①

口口⑧口
口⑨口口
⑩⑪⑪⑦ |⑦-⑧⑨|
口口口口 |⑩-⑪-|
26
①⑩口① |①---|
口⑤④口 |②③④⑤|
⑦⑧⑨⑥ |⑥-⑦⑧|
口③②⑥ |⑨-⑩-|
27
口⑧⑨口 |①-②③|
口④③② |④-⑤-|
⑥⑩⑩⑦ |⑥⑦⑧⑨|
①①口⑤ |⑩---|
28
⑥口⑧③ |①-②-|
①口口④ |③-④-|
⑦口口口 |⑤-⑥-|
口⑤②口 |⑦-⑧-|
29
口③⑦口 |①-②-|
⑤口口口 |③-④-|
口口口② |⑤-⑥-|
④⑧⑥① |⑦-⑧-|
30
⑤⑧⑧② |①-②③|
⑥⑩⑩③ |④-⑤⑥|
⑦①①④ |⑦-⑧-|
口⑨⑨口 |⑨-⑩-|
31
⑧⑥口① |①-②-|
②口口④ |③-④-|
口口口⑦ |⑤-⑥-|
⑤口口③ |⑦-⑧-|
32
口口②⑥ |①-②-|
⑤⑧口口 |③-④-|
③口口口 |⑤-⑥-|
口①⑦④ |⑦-⑧-|
33
口⑤⑤口 |①②③④|
口口口口 |⑤-⑥-|
④③②①
⑥口口⑥

口口口口
口⑨⑧⑦
口⑫⑪⑩ |⑦⑧⑨-|
口口口口 |⑩⑪⑫-|
34
口④口② |①-②-|
①口口口 |③-④-|
口口口口
口口③口

口口⑧口
⑦口口⑤
口口口口 |⑤-⑥-|
⑥口口口 |⑦-⑧-|
35
⑦口口口 |①-②-|
口口③口 |③-④⑤|
④⑤⑥口 |⑥-⑦-|
口②口①

口口口口
口口口口
口口口口
口⑩⑨⑧ |⑧⑨⑩-|
36
口①口口 |①②③-|
④②口口 |④⑤⑥-|
⑤③口口
⑥口口口

口⑨⑨⑧
口口⑧口
口口⑦口 |⑦-⑧-|
口口口⑦ |⑨---|
37
③⑦口⑤ |①-②-|
口口口① |③-④-|
④口口⑧ |⑤-⑥-|
口②口⑥ |⑦-⑧-|
38
⑨⑤⑤④ |①-②-|
口⑥⑦⑧ |③-④-|
③口口口 |⑤-⑥⑦|
①口②口 |⑧-⑨-|
39
口⑪口⑨ |①②③④|
⑩口口⑫ |⑤⑥⑦⑧|
①②③④ |⑨-⑩-|
⑤⑥⑦⑧ |⑪-⑫-|
40
④⑩⑤⑨ |①②③④|
口③⑧口 |⑤-⑥⑦|
口⑦②口 |⑧⑨⑩-|
口①⑥口

口口口口
口⑬口口
⑫口⑭口
口⑪口口 |⑪⑫⑬⑭|
41
口⑥①口 |①-②③|
口口④口 |④⑤⑥-|
口⑤口③
口口②口

⑦口口⑪
⑧口口⑫
⑨口口⑬ |⑦⑧⑨⑩|
⑩口口⑭ |⑪⑫⑬⑭|
42
④⑩⑤⑨ |①②③④|
口③⑧口 |⑤-⑥⑦|
口⑦②口 |⑧⑨⑩-|
口①⑥口

口口口口
口⑬口口
⑫口⑭口
口⑪口口 |⑪⑫⑬⑭|
43
口⑥①口 |①-②③|
口口④口 |④⑤⑥-|
口⑤口③
口口②口

⑦口口⑪
⑧口口⑫
⑨口口⑬ |⑦⑧⑨⑩|
⑩口口⑭ |⑪⑫⑬⑭|
44
④⑩⑤⑨ |①②③④|
口③⑧口 |⑤-⑥⑦|
口⑦②口 |⑧⑨⑩-|
口①⑥口

口口口口
口⑬口口
⑫口⑭口
口⑪口口 |⑪⑫⑬⑭|
45
口⑥①口 |①-②③|
口口④口 |④⑤⑥-|
口⑤口③
口口②口

⑦口口⑪
⑧口口⑫
⑨口口⑬ |⑦⑧⑨⑩|
⑩口口⑭ |⑪⑫⑬⑭|
46
⑥②①⑤ |①--②|
口④③口 |--③-|
口④③口 |-④--|
⑥②①⑤ |⑤--⑥|
47
口③③口 |--①-|
②口口① |-②--|
②口口① |③---|
④口口④ |④---|
48
⑨⑤⑩④ |①②③④|
口⑧③口 |⑤-⑥⑦|
口②⑦口 |⑧⑨⑩-|
口⑥①口

口口口口
口口⑬口
口⑭口⑫
口口⑪口 |⑪⑫⑬⑭|
49
口①⑥口 |①-②③|
口④口口 |④⑤⑥-|
③口⑤口
口②口口

⑪口口⑦
⑫口口⑧
⑬口口⑨ |⑦⑧⑨⑩|
⑭口口⑩ |⑪⑫⑬⑭|
50
⑨⑤⑩④ |①②③④|
口⑧③口 |⑤-⑥⑦|
口②⑦口 |⑧⑨⑩-|
口⑥①口

口口口口
口口⑬口
口⑭口⑫
口口⑪口 |⑪⑫⑬⑭|
51
口①⑥口 |①-②③|
口④口口 |④⑤⑥-|
③口⑤口
口②口口

⑪口口⑦
⑫口口⑧
⑬口口⑨ |⑦⑧⑨⑩|
⑭口口⑩ |⑪⑫⑬⑭|
52
⑨⑤⑩④ |①②③④|
口⑧③口 |⑤-⑥⑦|
口②⑦口 |⑧⑨⑩-|
口⑥①口

口口口口
口口⑬口
口⑭口⑫
口口⑪口 |⑪⑫⑬⑭|
53
口①⑥口 |①-②③|
口④口口 |④⑤⑥-|
③口⑤口
口②口口

⑪口口⑦
⑫口口⑧
⑬口口⑨ |⑦⑧⑨⑩|
⑭口口⑩ |⑪⑫⑬⑭|
54
⑤①②⑥ |①--②|
口③④口 |--③-|
口③④口 |-④--|
⑤①②⑥ |⑤--⑥|
55
口①①口 |--①-|
口②②口 |----|
口口口口 |②---|
③口口③ |③---|
56
口∨②口 |①-②-|
口┃口口 |--③-|
口①口③
口口口口

口口口④
口⑦⑥⑦
口④口口 |④-⑤-|
口口⑤口 |⑥-⑦-|
57
∨口②口 |①-②-|
①口口口 |--③-|
口口口③
口口口口

>④口口
④口口⑤
口口④口 |④-⑤-|
口口⑥口 |--⑥-|
58
口①①< |①-②-|
口②口口
口①口口
口口口口

③口③口
口口④④ |--③---|
口口⑤⑤ |④---⑤-|
口口⑥⑥ |--⑥---|
59
口口②口 |①-②-|
①━<口 |--③-|
口口口③
口口口口

口口口口
④⑥口⑤
口④⑥口 |④-⑤-|
口口⑦口 |⑥-⑦-|
60
>━①口 |①-②-|
口口口口
②口口口
口口口口

③口④∨
⑤口口┃ |--③-|
口口口④ |④-⑤-|
口⑥口口 |--⑥-|
61
口②口口 |①-②-|
>━①口 |--③-|
③口口①
口口口口

④口口口
⑥口④口
口⑤口口 |④-⑤-|
口口⑦口 |⑥-⑦-|
62
口口口∨ |①-②-|
口②口① |--③-|
口口口口
口③口口

⑤口∨口
口口④④
④⑥口口 |④-⑤-|
口口口口 |--⑥-|
63
口①口口 |①-②-|
口②①口 |--③-|
口口口∨
③口口①

⑥口口⑤
④⑦⑤口
口口口口 |④---|
口口口④ |⑤-⑥⑦|
64
口②∨口 |①-②-|
口口┃口 |--③-|
③口①口
口口口口

口口口口
⑤>━④
口④④口 |④-⑤-|
口⑥口口 |--⑥-|
65
口①口∨ |①-②-|
口②口① |--③-|
口口口①
③口口口

⑤口④口
口口∧口
④⑥口④ |④-⑤-|
口口口口 |--⑥-|
66
口①①口 |①-②-|
口>━①
口口口口
②口口口

口口口口
④④口③ |--③---|
⑤⑤③口 |④---⑤-|
⑥⑥口口 |--⑥---|
67
口②口口 |①-②-|
口口①口 |--③-|
③口┃口
口口∧口

口口⑥④
④口④口
口⑦口口 |④-⑤-|
口⑤口口 |⑥-⑦-|
68
>①口口 |①-②-|
口口口② |--③-|
口口口口
口口③口

口④口⑤
∨口④口
④口⑥口 |④-⑤-|
口口口口 |--⑥-|
69
①口①口 |①-②-|
∧口口② |--③-|
①口口口
口口③口

④⑦口⑤
口④口口
口口⑥口 |④-⑤-|
口口口口 |⑥-⑦-|
70
口口口口 |①-②-|
口③口口 |③-④-|
④口口口
②口>①

口口⑦口
口口口口
口⑤<⑥ |⑤-⑥-|
口口⑧⑤ |⑦-⑧-|
71
④②口口 |①-②-|
口口>① |③-④-|
③①口口
口口口口

口口⑤口
口⑥口⑤
口口⑤口 |⑤---|
口⑥口口 |⑥---|
72
∨④⑤① |①--②|
┃⑦①⑤ |-③④-|
①③⑥② |⑤--⑥|
口⑧②⑥ |-⑦⑧-|
73
口④口① |①--②|
口口①口 |-③④-|
口③口②
口口②口

口口⑤⑨
口⑥口⑩
⑤口⑦⑪ |⑤⑥⑦⑧|
口⑧口⑫ |⑨⑩⑪⑫|
74
⑤②⑤口 |①--②|
①⑦⑧口 |-③④-|
⑥②⑥口 |⑤--⑥|
①④③口 |-⑦⑧-|
75
⑤①⑨① |①--②|
⑩⑥⑪口 |-③④-|
⑫②⑦② |⑤⑥⑦⑧|
口④③⑧ |⑨⑩⑪⑫|
76
②>━① |①--②|
口③口口 |--③-|
口②口口
口口③口

口⑤口口
⑥口④口
⑤⑥口口 |-④--|
口④口口 |⑤--⑥|
77
口口口口 |--①-|
口①口口 |-②--|
口口①口
②②口口

③③口口
口⑤④口
④口⑤口 |③--④|
口口口口 |--⑤-|
78
口口口① |①②③④|
⑤口口口 |⑤-⑥-|
口口口⑥
①②③④

⑦⑧⑨⑩
口口口⑫
⑪口口口 |⑦⑧⑨⑩|
口口口口 |⑪-⑫-|
79
口口③③ |①--②|
①①口口 |--③-|
口口口口
口口②②

口⑤口口
⑥⑥⑥⑥
口口⑤口 |-④--|
④④口口 |⑤--⑥|
最終更新:2019年11月25日 18:34