アットウィキロゴ
SUPER SUMMER SALE
BEMANI Sound Team "U1 overground"

BASIC

Level: 5
BPM: 155
Notes: 404

1
口口口口 |----|
口口口口 |----|
口口口口 |----|
口口口口 |----|
2
口④口口 |①---|
口③口口 |②---|
口②口口 |③---|
口①口口 |④---|
3
口口口① |①---|
口口口② |②---|
口口口③ |③---|
口口口④ |④---|
4
口口口口 |①---|
口口口口 |②---|
口口口口 |③---|
①②③④ |④---|
5
口口口口 |①---|
④③②① |②---|
口口口口 |③---|
口口口口 |④---|
6
口口口口 |①-②-|
口⑥口③ |③---|
口⑤口② |④-⑤-|
口④口① |⑥---|
7
口口④口 |①---|
口口③口 |②---|
口口②口 |③---|
口口①口 |④---|
8
口口口口 |①-②-|
⑥口③口 |③---|
⑤口②口 |④-⑤-|
④口①口 |⑥---|
9
口④口口 |①---|
口③口口 |②---|
口②口口 |③---|
口①口口 |④---|
10
口口口口 |①-②-|
口⑥⑤④ |③---|
口口口口 |④-⑤-|
口③②① |⑥---|
11
口口口口 |①---|
口口口口 |②---|
④③②① |③---|
口口口口 |④---|
12
口⑥⑤④ |①-②-|
口口口口 |③---|
口③②① |④-⑤-|
口口口口 |⑥---|
13
口口口口 |①---|
④③②① |②---|
口口口口 |③---|
口口口口 |④---|
14
④口口口 |①---|
③口口口 |②---|
②口口口 |③---|
①口口口 |④---|
15
口口④口 |①---|
口口③口 |②---|
口口②口 |③---|
口口①口 |④---|
16
口④口口 |①---|
口③口口 |②---|
口②口口 |③---|
口①口口 |④---|
17
口口④口 |①---|
口口口③ |②---|
口口口② |③---|
口口口① |④---|
18
⑦口口⑧ |①-②-|
⑤口口⑥ |③-④-|
③口口④ |⑤-⑥-|
①口口② |⑦-⑧-|
19
口④⑥口 |①-②-|
口③口口 |③-④-|
口②口口 |⑤---|
口①⑤口 |⑥---|
20
口⑦口⑧ |①-②-|
口⑤口⑥ |③-④-|
口③口④ |⑤-⑥-|
口①口② |⑦-⑧-|
21
口⑥④口 |①-②-|
口口③口 |③-④-|
口口②口 |⑤---|
口⑤①口 |⑥---|
22
口口口口 |①---|
口口口口 |②---|
口口口口 |③---|
①②③④ |④---|
23
口口口口 |①---|
口口口口 |②---|
①②③④ |③---|
口口口口 |④---|
24
口口口口 |①---|
①②③④ |②---|
口口口口 |③---|
口口口口 |④---|
25
①②③口 |①---|
口口口④ |②---|
口口口口 |③---|
口口口口 |④---|
26
⑦口口⑧ |①-②-|
⑤口口⑥ |③-④-|
③口口④ |⑤-⑥-|
①口口② |⑦-⑧-|
27
口④⑥口 |①-②-|
口③口口 |③-④-|
口②口口 |⑤---|
口①⑤口 |⑥---|
28
口⑦口⑧ |①-②-|
口⑤口⑥ |③-④-|
口③口④ |⑤-⑥-|
口①口② |⑦-⑧-|
29
口⑥④口 |①-②-|
口口③口 |③-④-|
口口②口 |⑤---|
口⑤①口 |⑥---|
30
口口口④ |①---|
口口口③ |②---|
②口口口 |③---|
①口口口 |④---|
31
口口④口 |①---|
口口③口 |②---|
口②口口 |③---|
口①口口 |④---|
32
口口口口 |①---|
口口③④ |②---|
①②口口 |③---|
口口口口 |④---|
33
口口口口 |①---|
①②口口 |②---|
口口③④ |③---|
口口口口 |④---|
34
口口口④ |①---|
口口③口 |②---|
口②口口 |③---|
①口口口 |④---|
35
④口口口 |①---|
口③口口 |②---|
口口②口 |③---|
口口口① |④---|
36
口口口口 |①---|
口口口口 |②---|
①口口④ |③---|
口②③口 |④---|
37
口口③④ |①---|
①②口口 |②---|
口口口口 |③---|
口口口口 |④---|
38
口口口口 |①-②-|
口⑥口③ |③---|
口⑤口② |④-⑤-|
口④口① |⑥---|
39
口口④口 |①---|
口口③口 |②---|
口口②口 |③---|
口口①口 |④---|
40
口口口口 |①-②-|
⑥口③口 |③---|
⑤口②口 |④-⑤-|
④口①口 |⑥---|
41
口④口口 |①---|
口③口口 |②---|
口②口口 |③---|
口①口口 |④---|
42
口口口口 |①-②-|
口⑥⑤④ |③---|
口口口口 |④-⑤-|
口③②① |⑥---|
43
口口口口 |①---|
口口口口 |②---|
④③②① |③---|
口口口口 |④---|
44
口⑥⑤④ |①-②-|
口口口口 |③---|
口③②① |④-⑤-|
口口口口 |⑥---|
45
口口口口 |①---|
④③②① |②---|
口口口口 |③---|
口口口口 |④---|
46
④口口口 |①---|
③口口口 |②---|
②口口口 |③---|
①口口口 |④---|
47
口口④口 |①---|
口口③口 |②---|
口口②口 |③---|
口口①口 |④---|
48
口④口口 |①---|
口③口口 |②---|
口②口口 |③---|
口①口口 |④---|
49
口口④口 |①---|
口口口③ |②---|
口口口② |③---|
口口口① |④---|
50
⑦口口⑧ |①-②-|
⑤口口⑥ |③-④-|
③口口④ |⑤-⑥-|
①口口② |⑦-⑧-|
51
口④⑥口 |①-②-|
口③口口 |③-④-|
口②口口 |⑤---|
口①⑤口 |⑥---|
52
口⑦口⑧ |①-②-|
口⑤口⑥ |③-④-|
口③口④ |⑤-⑥-|
口①口② |⑦-⑧-|
53
口⑥④口 |①-②-|
口口③口 |③-④-|
口口②口 |⑤---|
口⑤①口 |⑥---|
54
④口口口 |①---|
③口口口 |②---|
②口口口 |③---|
①口口口 |④---|
55
口口④口 |①---|
口口③口 |②---|
口口②口 |③---|
口口①口 |④---|
56
口④口口 |①---|
口③口口 |②---|
口②口口 |③---|
口①口口 |④---|
57
口口④口 |①---|
口口口③ |②---|
口口口② |③---|
口口口① |④---|
58
⑦口口⑧ |①-②-|
⑤口口⑥ |③-④-|
③口口④ |⑤-⑥-|
①口口② |⑦-⑧-|
59
口④⑥口 |①-②-|
口③口口 |③-④-|
口②口口 |⑤---|
口①⑤口 |⑥---|
60
口⑦口⑧ |①-②-|
口⑤口⑥ |③-④-|
口③口④ |⑤-⑥-|
口①口② |⑦-⑧-|
61
④口⑥口 |①-②-|
③口口口 |③-④-|
②口口口 |⑤---|
①口⑤口 |⑥---|
62
口口口口 |----|
⑤口口⑥ |①-②-|
③口口④ |③-④-|
①口口② |⑤-⑥-|
63
①口口② |①-②-|
口口⑦口 |③-④-|
口⑤⑥口 |⑤-⑥-|
口③④口 |⑦---|
64
口口口口 |①-②-|
②④⑥⑧ |③-④-|
口口口口 |⑤-⑥-|
①③⑤⑦ |⑦-⑧-|
65
口①②口 |①-②-|
口③④口 |③-④-|
口⑤⑥口 |⑤-⑥-|
口⑦口口 |⑦---|
66
口④口口 |①-②-|
③口口口 |③---|
②口口口 |④---|
①口口口 |----|
67
口口④口 |①-②-|
口口口③ |③---|
口口口② |④---|
口口口① |----|
68
①③⑤⑦ |①-②-|
②④⑥⑧ |③-④-|
口口口口 |⑤-⑥-|
口口口口 |⑦-⑧-|
69
口口口口 |①-②-|
口口口口 |③-④-|
①③⑤⑦ |⑤-⑥-|
②④⑥口 |⑦---|
70
口④口口 |①-②-|
③口口口 |③---|
②口口口 |④---|
①口口口 |----|
71
口口④口 |①-②-|
口口口③ |③---|
口口口② |④---|
口口口① |----|
72
①②口口 |①-②-|
③④口口 |③-④-|
⑤⑥口口 |⑤-⑥-|
⑦⑧口口 |⑦-⑧-|
73
口口①② |①-②-|
口口③④ |③-④-|
口口⑤⑥ |⑤-⑥-|
口口⑦口 |⑦---|
74
口④口口 |①-②-|
③口口口 |③---|
②口口口 |④---|
①口口口 |----|
75
口口④口 |①-②-|
口口口③ |③---|
口口口② |④---|
口口口① |----|
76
①③⑤⑦ |①-②-|
②④⑥⑧ |③-④-|
口口口口 |⑤-⑥-|
口口口口 |⑦-⑧-|
77
口口口口 |①-②-|
口口口口 |③-④-|
①③⑤⑦ |⑤-⑥-|
②④⑥⑧ |⑦-⑧-|
78
口口口口 |①---|
口①①口 |----|
口口口口 |----|
口口口口 |----|

accuracy: 100%
最終更新:2022年04月01日 14:19