アットウィキロゴ
SUPER SUMMER SALE
BEMANI Sound Team "U1 overground"

ADVANCED

Level: 7
BPM: 155
Notes: 535

1
口口口口 |----|
口口口口 |----|
口口口口 |----|
口口口口 |----|
2
④⑤口口 |①②③-|
口口③口 |④-⑤-|
①②口口
口口口口

口口⑥口
口口口⑦
⑧⑨⑩口 |⑥-⑦-|
口口口⑪ |⑧⑨⑩⑪|
3
口②口③ |①-②-|
口①口④ |③-④-|
口口口⑤ |⑤-⑥-|
口口口⑥ |----|
4
④⑤口口 |①②③-|
口口③口 |④-⑤-|
①②口口
口口口口

口口⑥⑦
⑧⑨⑩口
口口口⑪ |⑥-⑦-|
口口口口 |⑧⑨⑩⑪|
5
①②口口 |①-②-|
口口口口 |③---|
口口口口
口③口口

⑤口⑤口
口④口口
口口口口 |④---|
口口口口 |⑤---|
6
口口口口 |①-②-|
⑥口③口 |③---|
口⑤口② |④-⑤-|
口④口① |⑥---|
7
口④口口 |①---|
口口③口 |②---|
口口②口 |③---|
口口①口 |④---|
8
⑥口③口 |①-②-|
口⑤口② |③---|
口④口① |④-⑤-|
口口口口 |⑥---|
9
④口口口 |①---|
口③口口 |②---|
口②口口 |③---|
口①口口 |④---|
10
口⑥口口 |①-②-|
口口⑤④ |③---|
口③口口 |④-⑤-|
口口②① |⑥---|
11
口口口口 |①---|
④口口口 |②---|
口③②① |③---|
口口口口 |④---|
12
口③口口 |①-②-|
口口②① |③---|
口⑥口口 |④-⑤-|
口口⑤④ |⑥---|
13
④口口口 |①---|
口③②① |②---|
口口口口 |③---|
口口口口 |④---|
14
口口①口 |①-②-|
③口口口 |③-④-|
口②④口
口口口口

口口⑦口
口口口口
⑤口口口 |--⑤-|
⑥口⑤口 |⑥-⑦-|
15
口①口口 |①-②-|
口③⑧口 |③-④-|
口⑤②④ |⑤-⑥-|
口⑦口⑥ |⑦-⑧-|
16
①③⑤⑦ |①-②-|
口②口⑥ |③-④-|
④口⑧口 |⑤-⑥-|
口口口口 |⑦-⑧-|
17
口②口口 |①-②-|
①③⑥⑥ |③-④-|
④口口口 |⑤---|
口口口⑤ |⑥---|
18
①口口⑧ |①-②-|
③口口口 |③-④-|
⑤②④口 |⑤-⑥-|
⑦口口⑥ |⑦-⑧-|
19
口①口口 |①-②-|
口③⑧口 |③-④-|
口⑤②④ |⑤-⑥-|
口⑦口⑥ |⑦-⑧-|
20
①③⑤⑦ |①-②-|
口②口⑥ |③-④-|
④口⑧口 |⑤-⑥-|
口口口口 |⑦-⑧-|
21
口②口口 |①-②-|
①③⑥⑥ |③-④-|
④口口口 |⑤---|
口口口⑤ |⑥---|
22
④口口口 |①---|
③口口口 |②---|
②口口口 |③---|
①口口口 |④---|
23
口④口④ |①---|
口口③口 |②---|
口口②口 |③---|
口口①口 |④---|
24
口④口口 |①---|
口③口口 |②---|
口②口口 |③---|
口①口口 |④---|
25
口④口④ |①---|
口口口③ |②---|
口口口② |③---|
口口口① |④---|
26
④口⑧口 |①-②-|
③口⑦口 |③-④-|
②口⑥口 |⑤-⑥-|
①口⑤口 |⑦-⑧-|
27
⑥④⑥口 |①-②-|
口③口口 |③-④-|
口②口口 |⑤---|
口①⑤口 |⑥---|
28
口④口⑧ |①-②-|
口③口⑦ |③-④-|
口②口⑥ |⑤-⑥-|
口①口⑤ |⑦-⑧-|
29
④⑥口⑥ |①-②-|
③口口口 |③-④-|
②口口口 |⑤---|
①口⑤口 |⑥---|
30
④口口口 |①②③④|
③⑤⑥⑦ |⑤⑥⑦-|
②口口口
①口口口

口⑪口口
⑩口口口
⑨口口口 |---⑧|
口⑧口口 |⑨⑩⑪-|
31
口口口① |--①②|
口口④② |③④⑤⑥|
⑦口⑤③ |----|
口口⑥口 |--⑦-|
32
口口口③ |①---|
口①②口 |②-③-|
口④⑤口 |--④-|
口口口口 |--⑤-|
33
口⑦口① |--①-|
口⑥口② |②-③-|
口⑤口口 |④-⑤-|
口④口③ |⑥-⑦-|
34
⑦口⑧⑫ |①②③④|
⑤口⑥⑪ |⑤⑥⑦⑧|
③口④⑩ |----|
①口②⑨ |⑨⑩⑪⑫|
35
口①口口 |----|
口②⑥口 |①②③④|
口③口口 |--⑤-|
⑦④⑤口 |⑥-⑦-|
36
口口口口 |①---|
①口口口 |②-③-|
②③④⑤ |--④-|
口口口口 |--⑤-|
37
⑦口口口 |--①-|
⑥③口口 |②-③-|
⑤②口口 |④-⑤-|
④①口口 |⑥-⑦-|
38
口口口口 |①-②-|
⑥口③口 |③---|
口⑤口② |④-⑤-|
口④口① |⑥---|
39
口④口口 |①---|
口口③口 |②---|
口口②口 |③---|
口口①口 |④---|
40
⑥口③口 |①-②-|
口⑤口② |③---|
口④口① |④-⑤-|
口口口口 |⑥---|
41
④口口口 |①---|
口③口口 |②---|
口②口口 |③---|
口①口口 |④---|
42
口⑥口口 |①-②-|
口口⑤④ |③---|
口③口口 |④-⑤-|
口口②① |⑥---|
43
口口口口 |①---|
④口口口 |②---|
口③②① |③---|
口口口口 |④---|
44
口③口口 |①-②-|
口口②① |③---|
口⑥口口 |④-⑤-|
口口⑤④ |⑥---|
45
④口口口 |①---|
口③②① |②---|
口口口口 |③---|
口口口口 |④---|
46
口口①口 |①-②-|
③口口口 |③-④-|
口②④口
口口口口

口口⑧口
口口口口
⑤口口口 |⑤-⑥-|
⑦口⑥口 |⑦-⑧-|
47
口①口口 |①-②-|
口③⑧口 |③-④-|
口⑤②④ |⑤-⑥-|
口⑦口⑥ |⑦-⑧-|
48
①③⑤⑦ |①-②-|
口②口⑥ |③-④-|
④口⑧口 |⑤-⑥-|
口口口口 |⑦-⑧-|
49
口②口口 |①-②-|
①③⑥⑥ |③-④-|
④口口口 |⑤---|
口口口⑤ |⑥---|
50
①口口⑧ |①-②-|
③口口口 |③-④-|
⑤②④口 |⑤-⑥-|
⑦口口⑥ |⑦-⑧-|
51
口①口口 |①-②-|
口③⑧口 |③-④-|
口⑤②④ |⑤-⑥-|
口⑦口⑥ |⑦-⑧-|
52
①③⑤⑦ |①-②-|
口②口⑥ |③-④-|
④口⑧口 |⑤-⑥-|
口口口口 |⑦-⑧-|
53
口②口口 |①-②-|
①③⑥⑥ |③-④-|
④口口口 |⑤---|
口口口⑤ |⑥---|
54
④口口口 |①---|
③口口口 |②---|
②口口口 |③---|
①口口口 |④---|
55
口④口④ |①---|
口口③口 |②---|
口口②口 |③---|
口口①口 |④---|
56
口④口口 |①---|
口③口口 |②---|
口②口口 |③---|
口①口口 |④---|
57
口④口④ |①---|
口口口③ |②---|
口口口② |③---|
口口口① |④---|
58
④口⑧口 |①-②-|
③口⑦口 |③-④-|
②口⑥口 |⑤-⑥-|
①口⑤口 |⑦-⑧-|
59
⑥口⑥口 |①-②-|
口口口口 |③-④-|
口口⑤口 |⑤---|
①②③④ |⑥---|
60
口④口⑧ |①-②-|
口③口⑦ |③-④-|
口②口⑥ |⑤-⑥-|
口①口⑤ |⑦-⑧-|
61
口⑥口⑥ |①-②-|
口口口口 |③-④-|
口口⑤口 |⑤---|
①②③④ |⑥---|
62
口口口口 |----|
⑤口口⑥ |①-②-|
③口口④ |③-④-|
①口口② |⑤-⑥-|
63
①口口② |①-②-|
口⑦口口 |③-④-|
口⑤⑥口 |⑤-⑥-|
口③④口 |⑦---|
64
⑤口口⑨ |①-②③|
④口①⑧ |④⑤⑥⑦|
③口口⑦ |⑧⑨--|
②口口⑥ |----|
65
口口①口 |①②③-|
口口②口 |④--⑤|
口口③口
口④口⑤

口口⑦口
口口⑧⑥
口口⑨口 |-⑥--|
口口口口 |-⑦⑧⑨|
66
②口口口 |①②③④|
③口口口 |⑤---|
④口口口
⑤口①口

口口口⑦
口口口⑧
口口口⑨ |⑥---|
口口⑩⑥ |⑦⑧⑨⑩|
67
①口口⑤ |①②③④|
②口口⑥ |----|
③口口⑦ |⑤⑥⑦⑧|
⑨④口⑧ |⑨---|
68
①②③④ |①②③④|
⑤⑥⑦⑧ |⑤⑥⑦⑧|
⑨⑩⑪⑫ |⑨⑩⑪⑫|
⑬⑭⑮⑯ |⑬⑭⑮⑯|
69
①②③④ |①②③④|
⑤⑥⑦⑧ |⑤⑥⑦⑧|
⑨⑩⑪⑫ |⑨⑩⑪⑫|
⑬口口口 |⑬---|
70
④④口口 |①--②|
③口口口 |--③-|
②口口口 |④---|
口①口口 |----|
71
口口④口 |①--②|
⑤口口③ |--③-|
⑥口口② |--④-|
口口①口 |⑤-⑥-|
72
口口口口 |①-②-|
⑧③③口 |--③-|
⑥口①⑦ |--④⑤|
④口②⑤ |⑥⑦⑧-|
73
③口③口 |①--②|
口口口口 |--③-|
口①口口
口②口口

口口口④
口⑤口口
口⑥口口 |--④-|
口口口口 |⑤-⑥-|
74
口③口③ |①--②|
⑧口口口 |--③-|
⑥口①⑦ |--④⑤|
④口②⑤ |⑥⑦⑧-|
75
口③③口 |①--②|
口口口口 |--③-|
口①口口
口②口口

口口口口
口口④口
口⑤口口 |--④-|
口⑥口口 |⑤-⑥-|
76
口③③口 |①--②|
⑧口口口 |--③-|
⑥口①⑦ |--④⑤|
④口②⑤ |⑥⑦⑧-|
77
口③口③ |①--②|
口口④口 |--③-|
口⑤①口 |--④-|
口⑥②口 |⑤-⑥-|
78
①口①口 |①---|
口口口口 |----|
口口口口 |----|
口口口口 |----|

accuracy: 100%
最終更新:2022年04月01日 14:47