アットウィキロゴ
SUPER SUMMER SALE
BEMANI Sound Team "U1 overground"

EXTREME

Level: 9.4
BPM: 155
Notes: 781

1
口口口口 |----|
口口口口 |----|
口口口口 |----|
口口口口 |----|
2
口口口口 |①②③-|
④⑤口口 |④-⑤-|
①口③口
口②口口

口口口口
口口⑥⑦
⑪⑨口口 |⑥-⑦-|
⑧⑩口口 |⑧⑨⑩⑪|
3
①②③③ |①-②-|
口口④④ |③-④-|
口口⑤⑤ |⑤-⑥-|
口口⑥⑥ |----|
4
④⑤口口 |①②③-|
①口③口 |④-⑤-|
口②口口
口口口口

口口⑥⑦
口口口口
⑪⑨口口 |⑥-⑦-|
⑧⑩口口 |⑧⑨⑩⑪|
5
①②口口 |①-②-|
口口口口 |-③--|
口口③③
口口口口

⑤口⑤口
⑤④⑤口
口口口口 |④---|
口口口口 |⑤---|
6
口口④口 |①-②-|
⑥③⑤① |③---|
⑥③口② |④-⑤-|
口口口口 |⑥---|
7
④口口④ |①---|
口③③口 |②---|
口②②口 |③---|
口①①口 |④---|
8
口口口口 |①-②-|
⑥③口口 |③---|
口口④① |④-⑤-|
⑥③⑤② |⑥---|
9
④口④口 |①---|
口③口③ |②---|
口②口② |③---|
口①口① |④---|
10
口口口① |①-②-|
③口②④ |③---|
③⑥⑤口 |④-⑤-|
口⑥口口 |⑥---|
11
①②③④ |①---|
口②③口 |②---|
①口口④ |③---|
口口口口 |④---|
12
口口口口 |①-②-|
③口口① |③---|
③⑥②④ |④-⑤-|
口⑥⑤口 |⑥---|
13
①②③④ |①---|
口②③口 |②---|
①口口④ |③---|
口口口口 |④---|
14
①口⑧⑧ |①-②-|
③②④口 |③-④-|
⑤②④口 |⑤-⑥-|
⑦口⑥⑥ |⑦-⑧-|
15
口①口口 |①-②-|
口③②④ |③-④-|
口口②④
口口口口

口口口口
口口⑧口
口⑤⑧口 |⑤-⑥-|
口⑦⑥⑥ |⑦-⑧-|
16
①③⑤⑦ |①-②-|
②②⑥⑥ |③-④-|
④④⑧⑧ |⑤-⑥-|
口口口口 |⑦-⑧-|
17
②②⑥⑥ |①-②-|
①③⑥⑥ |③-④-|
④④口口 |⑤---|
口口⑤⑤ |⑥---|
18
①口⑧⑧ |①-②-|
③②口口 |③-④-|
⑤②④口 |⑤-⑥-|
⑦④⑥⑥ |⑦-⑧-|
19
口①口口 |①-②-|
口③②④ |③-④-|
口口②④
口口口口

口口口口
口口⑧口
口⑤⑧口 |⑤-⑥-|
口⑦⑥⑥ |⑦-⑧-|
20
①③⑤⑦ |①-②-|
②②⑥⑥ |③-④-|
④④⑧⑧ |⑤-⑥-|
口口口口 |⑦-⑧-|
21
②②⑥⑥ |①-②-|
①③⑥⑥ |③-④-|
④④口口 |⑤---|
口口⑤⑤ |⑥---|
22
⑦⑧口口 |①-②-|
⑤⑥口口 |③-④-|
③④口口 |⑤-⑥-|
①②口口 |⑦-⑧-|
23
口⑥口⑥ |①-②-|
口口⑤⑤ |③-④-|
口口③④ |⑤---|
口口①② |⑥---|
24
⑧⑦口口 |①-②-|
⑥⑤口口 |③-④-|
④③口口 |⑤-⑥-|
②①口口 |⑦-⑧-|
25
口⑥口⑥ |①-②-|
口口⑤⑤ |③-④-|
口口④③ |⑤---|
口口②① |⑥---|
26
口口口口 |①-②-|
②④⑥⑧ |③-④-|
口口口口 |⑤-⑥-|
①③⑤⑦ |⑦-⑧-|
27
②④⑤⑥ |①-②-|
口口口⑥ |③-④-|
①③⑤口 |⑤---|
口口口口 |⑥---|
28
口口口口 |①-②-|
①③⑤⑦ |③-④-|
②④⑥⑧ |⑤-⑥-|
口口口口 |⑦-⑧-|
29
①⑤⑦⑧ |①②③④|
②⑥⑦口 |⑤-⑥-|
③口口⑧ |⑦---|
④口口口 |⑧---|
30
口口口口 |①②③-④-⑤-|
口⑥⑦⑧ |⑥⑦⑧-|
④⑤口口
①②③口

口口口⑨
⑭口口口
⑫⑬口口 |⑨--⑩|
⑩⑪口口 |⑪⑫⑬⑭|
31
口口⑤口 |①-②③|
⑨①⑥② |④⑤⑥⑦|
口口⑦③ |⑧---|
口⑧口④ |--⑨-|
32
口①口口 |①---|
口③口口 |②-③-|
②口口口 |--④-|
④⑤口口 |--⑤-|
33
口⑥⑤① |--①-|
口口②口 |②-③-|
口口⑦③ |④-⑤-|
口口④口 |⑥-⑦-|
34
⑦⑧⑩⑨ |①②③④|
⑤⑥⑫⑪ |⑤⑥⑦⑧|
③④⑭⑬ |⑨⑩⑪⑫|
①②⑯⑮ |⑬⑭⑮⑯|
35
④⑤⑥⑦ |①②③④|
③口⑬⑧ |⑤⑥⑦⑧|
②⑭口⑨ |⑨⑩⑪⑫|
①⑫⑪⑩ |⑬-⑭-|
36
口口口口 |①---|
①口口口 |②-③-|
口口④⑤ |--④-|
②③口口 |--⑤-|
37
①②③④ |----|
口口口口 |----|
口口口口 |①-②-|
口口口口 |③-④-|
38
口口④口 |①-②-|
⑥③⑤① |③---|
⑥③口② |④-⑤-|
口口口口 |⑥---|
39
④口口④ |①---|
口③③口 |②---|
口②②口 |③---|
口①①口 |④---|
40
口口口口 |①-②-|
⑥③口口 |③---|
口口④① |④-⑤-|
⑥③⑤② |⑥---|
41
④口④口 |①---|
口③口③ |②---|
口②口② |③---|
口①口① |④---|
42
口口口① |①-②-|
③口②④ |③---|
③⑥⑤口 |④-⑤-|
口⑥口口 |⑥---|
43
①②③④ |①---|
口②③口 |②---|
①口口④ |③---|
口口口口 |④---|
44
口口口口 |①-②-|
③口口① |③---|
③⑥②④ |④-⑤-|
口⑥⑤口 |⑥---|
45
①②③④ |①---|
口②③口 |②---|
①口口④ |③---|
口口口口 |④---|
46
①口⑧⑧ |①-②-|
③②④口 |③-④-|
⑤②④口 |⑤-⑥-|
⑦口⑥⑥ |⑦-⑧-|
47
口①口口 |①-②-|
口③②④ |③-④-|
口口②④
口口口口

口口口口
口口⑧口
口⑤⑧口 |⑤-⑥-|
口⑦⑥⑥ |⑦-⑧-|
48
①③⑤⑦ |①-②-|
②②⑥⑥ |③-④-|
④④⑧⑧ |⑤-⑥-|
口口口口 |⑦-⑧-|
49
②②⑥⑥ |①-②-|
①③⑥⑥ |③-④-|
④④口口 |⑤---|
口口⑤⑤ |⑥---|
50
①口⑧⑧ |①-②-|
③②口口 |③-④-|
⑤②④口 |⑤-⑥-|
⑦④⑥⑥ |⑦-⑧-|
51
口①口口 |①-②-|
口③②④ |③-④-|
口口②④
口口口口

口口口口
口口⑧口
口⑤⑧口 |⑤-⑥-|
口⑦⑥⑥ |⑦-⑧-|
52
①③⑤⑦ |①-②-|
②②⑥⑥ |③-④-|
④④⑧⑧ |⑤-⑥-|
口口口口 |⑦-⑧-|
53
②②⑥⑥ |①-②-|
①③⑥⑥ |③-④-|
④④口口 |⑤---|
口口⑤⑤ |⑥---|
54
⑦⑧口口 |①-②-|
⑤⑥口口 |③-④-|
③④口口 |⑤-⑥-|
①②口口 |⑦-⑧-|
55
口⑥口⑥ |①-②-|
口口⑤⑤ |③-④-|
口口③④ |⑤---|
口口①② |⑥---|
56
⑧⑦口口 |①-②-|
⑥⑤口口 |③-④-|
④③口口 |⑤-⑥-|
②①口口 |⑦-⑧-|
57
口⑥口⑥ |①-②-|
口口⑤⑤ |③-④-|
口口④③ |⑤---|
口口②① |⑥---|
58
口口口口 |①-②-|
②④⑥⑧ |③-④-|
口口口口 |⑤-⑥-|
①③⑤⑦ |⑦-⑧-|
59
②④⑤⑥ |①-②-|
口口口⑥ |③-④-|
①③⑤口 |⑤---|
口口口口 |⑥---|
60
口口口口 |①-②-|
①③⑤⑦ |③-④-|
②④⑥⑧ |⑤-⑥-|
口口口口 |⑦-⑧-|
61
①⑤⑦⑧ |①②③④|
②⑥⑦口 |⑤-⑥-|
③口口⑧ |⑦---|
④口口口 |⑧---|
62
口口口口 |----|
⑤⑥⑦⑧ |①②③④|
⑨⑪⑫⑩ |⑤⑥⑦⑧|
①②③④ |⑨⑩⑪⑫|
63
①③④② |①②③④|
⑧⑦⑪⑫ |⑤⑥⑦⑧|
口口口口 |⑨⑩⑪⑫|
⑥⑤⑨⑩ |----|
64
口口③② |①-②③|
⑤④⑦⑥ |④⑤⑥⑦|
口口①①
口口口口

⑩⑪⑮⑭
口口口口
⑨⑧⑫⑬ |⑧⑨⑩⑪|
口口口口 |⑫⑬⑭⑮|
65
口口口口 |①②③-|
②①口口 |④--⑤|
⑤⑤口口
③③④④

口⑧⑩⑥
口⑨⑪⑦
口口⑫口 |-⑥⑦⑧|
口口口口 |⑨⑩⑪⑫|
66
②口口口 |①②③④|
③口口口 |⑤---|
④口口口
⑤口①口

⑦⑨⑩⑧
口口口口
口口口⑥ |⑥---|
口口口⑥ |⑦⑧⑨⑩|
67
口口口口 |①②③④|
①③④② |⑤⑥⑦⑧|
⑪⑧⑥⑫ |⑨⑩⑪⑫|
⑨⑤⑦⑩ |----|
68
口③口① |①②③④|
⑤口⑦② |⑤⑥⑦⑧|
⑥口⑧口
口④口口

⑬⑭⑫口
口⑪口口
口⑩口口 |⑨⑩⑪⑫|
⑨口⑮⑯ |⑬⑭⑮⑯|
69
⑨口口⑤ |①②③④|
③⑩⑥① |⑤⑥⑦⑧|
④⑦⑪② |⑨⑩⑪⑫|
⑧⑬⑬⑫ |⑬---|
70
口①①口 |①--②|
②口口③ |--③-|
②口口③
口口口口

口⑨⑩口
口④④口
口④④口 |④-⑤⑥|
⑤⑥⑦⑧ |⑦⑧⑨⑩|
71
①口口① |①--②|
口②③口 |--③-|
口③②口
口口口口

⑥⑥口口
⑤口口⑤
④口口④ |--④-|
口口口口 |⑤-⑥-|
72
口口①① |①--②|
⑥③③⑨ |--③-|
⑤口口⑧ |--④⑤|
④②②⑦ |⑥⑦⑧⑨|
73
③口口③ |①--②|
口③③口 |--③-|
口①①口
口②②口

口口口口
口口口⑤
④⑥口⑤ |--④-|
④⑥口口 |⑤-⑥-|
74
③口口③ |①--②|
口②②口 |--③-|
口口①口
口口①口

口口口口
口⑧⑨口
口⑤⑦口 |--④⑤|
口④⑥口 |⑥⑦⑧⑨|
75
口③③口 |①--②|
②口口② |--③-|
口口口口
①口口①

口口口口
口⑤④口
口④⑤口 |--④-|
⑥口口⑥ |⑤-⑥-|
76
口③③口 |①--②|
①⑧⑨① |--③-|
⑤口口⑦ |--④⑤|
④②②⑥ |⑥⑦⑧⑨|
77
①口口① |①--②|
⑤⑥⑥⑤ |--③-|
口③③口 |--④-|
④②②④ |⑤-⑥-|
78
①口口① |①---|
口口口口 |----|
①口口① |----|
口口口口 |----|

accuracy: 100%
最終更新:2022年04月01日 15:43