アットウィキロゴ
風鈴花火
BEMANI Sound Team "劇団レコード"feat.結良まり

BASIC

Level: 2
BPM: 150
Notes: 168

1
口口口口 |----|
口口口口 |----|
口口口口 |----|
口口口口
2
口口口口 |----|
口口口口 |----|
口口口口 |----|
口口口口
3
口口口口 |①---|
口①口口 |----|
口口口口 |----|
口口口口
4
口口口口 |①---|
口口口口 |----|
口口①口 |----|
口口口口
5
口口口口 |①---|
口口口口 |----|
口口口口 |----|
口①口口
6
口口口口 |①---|
口口口口 |----|
口口口口 |----|
口口①口
7
口口口口 |①---|
口口口口 |----|
口①口口 |----|
口口口口
8
口口口口 |①---|
口口①口 |----|
口口口口 |----|
口口口口
9
口①①口 |①---|
口口口口 |----|
口口口口 |----|
口口口口
10
口口口口 |----|
口口口口 |----|
口口口口 |----|
口口口口
11
口口口口 |①---|
口口口口 |----|
口口口① |----|
口口口口
12
口口口口 |①---|
口口口① |----|
口口口口 |----|
口口口口
13
口口口口 |①---|
口口口口 |----|
口口①口 |----|
口口口口
14
口口口口 |①---|
口口①口 |----|
口口口口 |----|
口口口口
15
口口口口 |①---|
口口口口 |----|
口①口口 |----|
口口口口
16
口口口口 |①---|
口①口口 |----|
口口口口 |----|
口口口口
17
口口口口 |①---|
口口口口 |----|
①口口口 |----|
口口口口
18
口口口口 |①---|
①口口口 |----|
口口口口 |----|
口口口口
19
口口口口 |①---|
①口口口 |----|
口口口口 |----|
口口口口
20
口口口口 |①---|
口口口口 |----|
①口口口 |----|
口口口口
21
口口口口 |①---|
口①口口 |----|
口口口口 |----|
口口口口
22
口口口口 |①---|
口口口口 |----|
口①口口 |----|
口口口口
23
口口口口 |①---|
口口①口 |----|
口口口口 |----|
口口口口
24
口口口口 |①---|
口口口口 |----|
口口①口 |----|
口口口口
25
口口口口 |①---|
口口口① |----|
口口口口 |----|
口口口口
26
口口口口 |①---|
口口口口 |----|
口口口① |----|
口口口口
27
口①口口 |①---|
口口口口 |----|
口口口口 |----|
口口口口
28
口口口口 |①---|
口口①口 |----|
口口口口 |----|
口口口口
29
口口口口 |①---|
口①口口 |----|
口口口口 |----|
口口口口
30
口口①口 |①---|
口口口口 |----|
口口口口 |----|
口口口口
31
口口口口 |①---|
口①口口 |----|
口口口口 |----|
口口口口
32
口口口口 |①---|
口口①口 |----|
口口口口 |----|
口口口口
33
口口口口 |①---|
口口口口 |----|
口①口口 |----|
口口口口
34
口口口口 |①---|
口口口口 |----|
口口①口 |----|
口口口口
35
口①口口 |①---|
口口口口 |----|
口口口口 |----|
口口口口
36
口口口口 |①---|
口口①口 |----|
口口口口 |----|
口口口口
37
口口口口 |①---|
口①口口 |----|
口口口口 |----|
口口口口
38
口口①口 |①---|
口口口口 |----|
口口口口 |----|
口口口口
39
口口口口 |①---|
口①口口 |----|
口口口口 |----|
口口口口
40
口口口口 |①---|
口口①口 |----|
口口口口 |----|
口口口口
41
口口口口 |①---|
口口口口 |----|
口①口口 |----|
口口口口
42
口口口口 |①---|
口口口口 |----|
口口①口 |----|
口口口口
43
口口口口 |①---|
口口口口 |----|
口口口口 |----|
口①①口
44
口口口口 |①---|
口口口口 |----|
①口口① |----|
口口口口
45
口口口口 |①---|
口①①口 |----|
口口口口 |----|
口口口口
46
①口口① |①---|
口口口口 |----|
口口口口 |----|
口口口口
47
口①①口 |①---|
口口口口 |----|
口口口口 |----|
口口口口
48
口口口口 |①---|
①口口① |----|
口口口口 |----|
口口口口
49
口口口口 |①---|
口口口口 |----|
口①①口 |----|
口口口口
50
口口口口 |①---|
口口口口 |----|
口口口口 |----|
①口口①
51
口口口口 |①---|
口口口口 |----|
口口①口 |----|
口口口口
52
口口口口 |①---|
口口口口 |----|
口①口口 |----|
口口口口
53
口口口口 |①---|
口②③① |②---|
口口口口 |③---|
口口口口
54
口口口口 |①---|
①口口口 |----|
口口口口 |----|
口口口口
55
口口口口 |①---|
口口口口 |②---|
口①②③ |③---|
口口口口
56
口口口② |①---|
口口口① |②---|
口口口口 |----|
口口口口
57
口口口口 |①---|
③口口口 |②---|
②①口口 |③---|
口口口口
58
①口口口 |①---|
口口口口 |----|
口口口口 |----|
口口口口
59
口口口口 |①---|
口口①口 |②---|
口②口口 |③---|
口口③口
60
口口口口 |①---|
口③口口 |②---|
口口②口 |③---|
口①口口
61
口②①口 |①---|
口口③口 |②---|
口口口口 |③---|
口口口口
62
口口口口 |①---|
口口口口 |②---|
口①口口 |③---|
口③②口
63
口口口口 |①---|
口口口口 |②---|
③②①口 |③---|
口口口口
64
②口口口 |①---|
①口口口 |②---|
口口口口 |----|
口口口口
65
口口口口 |①---|
口口口③ |②---|
口口①② |③---|
口口口口
66
口口口① |①---|
口口口口 |----|
口口口口 |----|
口口口口
67
口口口口 |①---|
口口①口 |②---|
口②口口 |③---|
口口③口
68
口口口口 |①---|
口③口口 |②---|
口口②口 |③---|
口①口口
69
口②①口 |①---|
口口③口 |②---|
口口口口 |③---|
口口口口
70
口口口口 |①---|
口口口口 |②---|
口①口口 |③---|
口③②口
71
口口口口 |①---|
口口口口 |----|
口①①口 |----|
口口口口
72
口口口口 |①---|
口①①口 |----|
口口口口 |----|
口口口口
73
口口口口 |①---|
口①口口 |----|
口口①口 |----|
口口口口
74
口口口口 |①---|
口口①口 |----|
口①口口 |----|
口口口口
75
口口口口 |①---|
口③口口 |②---|
口②口口 |③---|
口①口口
76
口口口口 |①---|
口口③口 |②---|
口口②口 |③---|
口口①口
77
口口口口 |①---|
③口口口 |②---|
②口口口 |③---|
①口口口
78
口口口口 |①---|
口口口③ |②---|
口口口② |③---|
口口口①
79
口口口口 |①---|
口口口口 |②---|
口①②③ |③---|
口口口口
80
口口口② |①---|
口口口① |②---|
口口口口 |----|
口口口口
81
口口口口 |①---|
③口口口 |②---|
②①口口 |③---|
口口口口
82
①口口口 |①---|
口口口口 |----|
口口口口 |----|
口口口口
83
口口口口 |①---|
口口①口 |②---|
口②口口 |③---|
口口③口
84
口口口口 |①---|
口③口口 |②---|
口口②口 |③---|
口①口口
85
口②①口 |①---|
口口③口 |②---|
口口口口 |③---|
口口口口
86
口口口口 |①---|
口口口口 |②---|
口①口口 |③---|
口③②口
87
口口口口 |①---|
口口口口 |②---|
③②①口 |③---|
口口口口
88
②口口口 |①---|
①口口口 |②---|
口口口口 |----|
口口口口
89
口口口口 |①---|
口口口③ |②---|
口口①② |③---|
口口口口
90
口口口① |①---|
口口口口 |----|
口口口口 |----|
口口口口
91
口口口口 |①---|
口口①口 |②---|
口②口口 |③---|
口口③口
92
口口口口 |①---|
口③口口 |②---|
口口②口 |③---|
口①口口
93
口①①口 |①---|
口口口口 |----|
口口口口 |----|
口口口口
94
口口口口 |①---|
①口口① |----|
口口口口 |----|
口口口口
95
口口口口 |①---|
口口①口 |----|
口①口口 |----|
口口口口
96
口口口口 |①---|
口①口口 |----|
口口①口 |----|
口口口口

accuracy: 100%
最終更新:2022年04月14日 00:35