アットウィキロゴ
風鈴花火
BEMANI Sound Team "劇団レコード"feat.結良まり

ADVANCED

Level: 5
BPM: 150
Notes: 261

1
口口口口 |----|
口口口口 |----|
口口口口 |----|
口口口口
2
口口口口 |----|
口口口口 |----|
口口口口 |----|
口口口口
3
口①口口 |①---|
口口②口 |②---|
口③口口 |③---|
口口口口
4
口口口口 |①---|
口口口口 |②---|
口口口口 |----|
口②①口
5
口口口口 |①---|
口①②口 |②---|
口③口口 |③---|
口口口口
6
口口口口 |①---|
口口口口 |----|
口口①口 |----|
口口口口
7
口口口口 |①---|
口口口口 |②---|
①②口口 |③---|
口③口口
8
口口口口 |①---|
口口口口 |②---|
口口②① |③---|
口口③口
9
口口口口 |①---|
口③口口 |②---|
口口②口 |③---|
口①口口
10
口①①口 |①---|
口口口口 |----|
口口口口 |----|
口口口口
11
口口口口 |①---|
①口①口 |----|
口②口口 |②---|
口口口口
12
口口口口 |①---|
口口口口 |----|
口口口口 |----|
口①口口
13
口口口口 |①---|
口①口① |----|
口口②口 |②---|
口口口口
14
口口口口 |①---|
口口口口 |----|
口口口口 |----|
口口①口
15
口口口口 |①---|
口口①口 |----|
口①口口 |②---|
口②口口
16
口口口口 |①---|
口①口口 |----|
口口①口 |②---|
口口②口
17
口口口口 |①---|
①口口① |----|
口口②口 |②---|
口口口口
18
口口口口 |①---|
口口口口 |----|
口口口① |----|
口口口口
19
口口口口 |①---|
①口①口 |----|
口②口口 |②---|
口口口口
20
口口口口 |①---|
口口口口 |----|
口口口口 |----|
口①口口
21
口口口口 |①---|
口口口口 |----|
口①②① |②---|
口口口口
22
口口口口 |①---|
口口口口 |----|
口口口口 |----|
口口①口
23
口口②口 |①---|
口口①口 |----|
口①口口 |②---|
口口口口
24
口②口口 |①---|
口①口口 |----|
口口①口 |②---|
口口口口
25
口口①口 |①---|
口②口口 |②---|
口口③口 |③---|
口口口口
26
口口口口 |①---|
口口口口 |----|
口口口口 |----|
口①口口
27
口口口口 |①---|
口口①口 |----|
口口口口 |②---|
口②口口
28
口口口口 |①---|
口口口口 |----|
口口口口 |----|
口口①口
29
口口②口 |①---|
口④口口 |--②-|
口③①口 |③-④-|
口口口口
30
口口②口 |①---|
①③口口 |----|
口口口口 |②-③-|
口口口口
31
口口口口 |①---|
口口口口 |----|
口②①口 |②---|
口口口口
32
口口①口 |①---|
口口③口 |----|
口口②口 |②-③-|
口口口口
33
口口口口 |①---|
口口口① |----|
口口口口 |----|
口口口口
34
口口口口 |----|
口口口口 |----|
口口口口 |----|
口口口口
35
口①口口 |①---|
口口口口 |--②-|
口③②口 |③---|
口口口口
36
口口口口 |①---|
口口①口 |----|
口口口口 |----|
口口口口
37
口口②口 |①---|
①口④口 |--②-|
口口③口 |③-④-|
口口口口
38
口②口口 |①---|
口③口① |----|
口口口口 |②-③-|
口口口口
39
口口口口 |①---|
口口口口 |----|
口①口口 |②---|
口口②口
40
口口口口 |①---|
口②①口 |--②-|
口口③口 |③-④-|
口④口口
41
口口口口 |①---|
口口口口 |----|
口口口口 |----|
口口①口
42
口口口口 |----|
口②口口 |----|
口①口口 |①-②-|
口口口口
43
口口口口 |①---|
①口口口 |----|
口口②口 |②---|
口口口口
44
口①②口 |①---|
口口口口 |----|
口口口口 |②---|
口口口口
45
口口口口 |①---|
口①口口 |----|
口口口口 |②---|
口口②口
46
口口口口 |①---|
口口②口 |②---|
口①口口 |----|
口口口口
47
口口口口 |①---|
口①②③ |②---|
口口口口 |③---|
口口口口
48
口③②① |①---|
口口口口 |②---|
口口口口 |③---|
口口口口
49
①口口口 |①---|
口口口口 |----|
口口口口 |----|
口口口口
50
口口口口 |----|
口口口口 |----|
口①口口 |①---|
口口口口
51
口口口口 |①---|
口②③口 |②---|
口口①口 |③---|
口口口口
52
口①②口 |①---|
口口③口 |--②-|
口口④口 |③-④-|
口口口口
53
口口口口 |①---|
口口③③ |②---|
②②口口 |③---|
①①口口
54
口口①① |①---|
口口口口 |----|
口口口口 |----|
口口口口
55
口口口口 |①-②-|
口②①口 |③-④-|
口④③口 |⑤-⑥-|
口⑥⑤口
56
口口口口 |①---|
②口口① |②---|
口口口口 |----|
口口口口
57
口口口口 |①-②-|
口⑥⑤口 |③-④-|
口②①口 |⑤-⑥-|
口④③口
58
口口①口 |①---|
口口③口 |----|
口口②口 |②-③-|
口口口口
59
口②口口 |①---|
口口口① |----|
口口口口 |②---|
口口口口
60
口口口口 |①---|
口①口口 |--②-|
口④②口 |③-④-|
口③口口
61
口口口口 |①---|
口口口口 |----|
①口口口 |----|
口口口口
62
口口口口 |----|
口口口口 |----|
口口口口 |----|
口口口口
63
口口口口 |①-②-|
口②①口 |③-④-|
口④③口 |⑤-⑥-|
口⑥⑤口
64
口口口口 |①---|
②口口① |②---|
口口口口 |----|
口口口口
65
口口口口 |①-②-|
口⑥⑤口 |③-④-|
口②①口 |⑤-⑥-|
口④③口
66
口口①口 |①---|
口③口口 |----|
口②口口 |②-③-|
口口口口
67
口口②口 |①---|
①口口口 |----|
口口口口 |②---|
口口口口
68
口口口口 |①---|
口②③口 |--②-|
口④①口 |③-④-|
口口口口
69
口口口口 |①---|
口口口口 |----|
口口①口 |----|
口口口口
70
口口口口 |----|
口口口口 |----|
口口口口 |①---|
口口①口
71
口口②口 |①---|
口①③① |--②-|
口口④口 |③-④-|
口口口口
72
口口口口 |①---|
口②口口 |----|
口口口口 |②---|
口口①口
73
①②①口 |①---|
口③口口 |--②-|
口④口口 |③-④-|
口口口口
74
口口口口 |①---|
口口口口 |----|
口口③② |②-③-|
口①口口
75
口口口口 |①---|
口口口口 |②---|
③③口口 |③---|
②②①口
76
口口口口 |①---|
①①②② |----|
口口口口 |②---|
口口口口
77
口口①① |①---|
口口口口 |----|
口口口口 |----|
口口口口
78
口口口口 |----|
口口口口 |----|
口口口口 |----|
口口口口
79
口口口口 |①-②-|
口②①口 |③-④-|
口④③口 |⑤-⑥-|
口⑥⑤口
80
口口口口 |①---|
②口口① |②---|
口口口口 |----|
口口口口
81
口口口口 |①-②-|
口⑥⑤口 |③-④-|
口②①口 |⑤-⑥-|
口④③口
82
口口①口 |①---|
口口③口 |----|
口口②口 |②-③-|
口口口口
83
口②口口 |①---|
口口口① |----|
口口口口 |②---|
口口口口
84
口口口口 |①---|
口①②口 |--②-|
口④口口 |③-④-|
口③口口
85
口口口口 |①---|
口口口口 |----|
①口口口 |----|
口口口口
86
口口口口 |----|
口口口口 |----|
口口口口 |----|
口口口口
87
口口口口 |①-②-|
口②①口 |③-④-|
口④③口 |⑤-⑥-|
口⑥⑤口
88
口口口口 |①---|
②口口① |②---|
口口口口 |----|
口口口口
89
口口口口 |①-②-|
口⑥⑤口 |③-④-|
口②①口 |⑤-⑥-|
口④③口
90
口口①口 |①---|
口③口口 |----|
口②口口 |②-③-|
口口口口
91
口口②口 |①---|
①口口口 |----|
口口口口 |②---|
口口口口
92
口口口口 |①---|
口口③口 |--②-|
口②①口 |③-④-|
口④口口
93
①口口① |①---|
口口口② |②---|
口口口③ |③---|
口口口口
94
口口口口 |①-②-|
口②③口 |--③-|
口④口口 |④---|
口口口①
95
口口口口 |①---|
③口口口 |②---|
②口口口 |③---|
①口口口
96
口口口口 |①-②-|
口③②口 |--③-|
口①④口 |④-⑤-|
口⑤口口

accuracy: 100%
最終更新:2022年04月14日 00:57