アットウィキロゴ
風鈴花火
BEMANI Sound Team "劇団レコード"feat.結良まり

EXTREME

Level: 8
BPM: 150
Notes: 634

1
口口口口 |----|
口口口口 |----|
口口口口 |----|
口口口口
2
口口口口 |----|
口口口口 |----|
口口口口 |----|
口口口口
3
口口口口 |①-②-|
口④①口 |③-④-|
口②⑤口 |⑤-⑥-|
口⑥③口
4
②口口① |①---|
口口口口 |②---|
口口口口 |----|
口口口口
5
口口口口 |①-②-|
口④①口 |③-④-|
口②⑤口 |⑤-⑥-|
口⑥③口
6
口口口① |①---|
口口口口 |----|
口口口③ |②-③-|
口口②口
7
口口口口 |①-②-|
⑥②⑤① |③-④-|
口④③口 |⑤-⑥-|
口口口口
8
口④口口 |①-②-|
口口⑤口 |③-④-|
口⑥③口 |⑤-⑥-|
口②①口
9
口口口口 |①-②-|
⑥口⑤口 |③-④-|
④口③口 |⑤-⑥-|
②口①口
10
口①①口 |①---|
口口口口 |②---|
口口口② |----|
②②口②
11
口②①口 |①---|
口①③① |--②-|
口④①口 |③-④-|
口口口口
12
口口口口 |①---|
口口口口 |----|
口口③口 |②-③-|
口②①①
13
口②口口 |①---|
①①③口 |--②-|
口④口口 |③-④-|
口口口口
14
口口口口 |①---|
口口口口 |----|
口口③口 |②-③-|
口②①①
15
口口口口 |①---|
①①口口 |----|
口②口口 |②---|
口口口口
16
口②②口 |①---|
口口①① |--②-|
④口口④ |③-④-|
口③③口
17
口口口口 |①---|
①口口① |----|
口口口口 |②-③-|
口②③口
18
④口④口 |①-②-|
①②③① |③-④-|
口⑤⑥⑤ |⑤-⑥-|
口口口口
19
口①②① |①---|
口③口口 |--②-|
口口④口 |③-④-|
口口口口
20
口口口口 |①---|
口口口口 |----|
口③口口 |②-③-|
①①②口
21
口②①① |①---|
口口③口 |--②-|
口口口口 |③-④-|
口④口口
22
口口口口 |①---|
口口口口 |----|
口③②口 |②-③-|
口口①①
23
口②口② |①---|
①口①口 |----|
口口口口 |②---|
口口口口
24
口⑤②口 |①---|
口①③① |--②③|
口口④口 |④-⑤-|
口口口口
25
口口口⑤ |①-②-|
口口口口 |③-④-|
④②口③ |⑤-⑥-|
口⑥①口
26
口③口口 |①-②-|
③口③① |③---|
口③口口 |----|
口口口②
27
口口口口 |①---|
口①口① |②---|
口③③口 |③---|
口口②口
28
①口②① |①---|
口口口口 |②-③-|
口⑤口口 |④-⑤-|
口③④口
29
③②口口 |①---|
①⑤①③ |②-③-|
口口⑤口 |④-⑤-|
口④④口
30
口⑤①① |①---|
④口口④ |②-③-|
口②⑤③ |④-⑤-|
口口口口
31
口口口口 |①---|
口①①口 |②---|
口②口口 |③---|
口③③口
32
口口口口 |①---|
④口②口 |②---|
①口③① |③-④-|
口④③口
33
口①②① |①-②-|
口③④③ |③-④-|
口⑤⑥⑤ |⑤-⑥-|
口口口口
34
①①口口 |①-②-|
④口⑤口 |③-④-|
口⑥口口 |⑤-⑥-|
口③②口
35
口②①口 |①---|
③口口① |②-③-|
③口④口 |④---|
口口④口
36
①口⑤① |①---|
口口口口 |②-③-|
口②口③ |④-⑤-|
口④口口
37
③口口口 |①---|
口①①③ |②-③-|
⑤②⑤口 |④-⑤-|
口④④口
38
口⑤①① |①---|
④口口④ |②-③-|
口②⑤③ |④-⑤-|
口口口口
39
口口口口 |①---|
口①①口 |②---|
口②口口 |③---|
口③③口
40
口口口口 |①---|
口③②③ |②-③-|
①④④① |④-⑤-|
⑤口口⑤
41
①②①口 |①-②-|
③④③口 |③-④-|
⑤⑥⑤口 |⑤-⑥-|
口口口口
42
⑤⑥①① |①-②-|
⑤口口② |③-④-|
口口口口 |⑤-⑥-|
④③③口
43
口口口④ |①--②|
口①①口 |--③-|
口②②口 |④---|
口③③口
44
口③口口 |①---|
②口口② |②---|
①口口① |③---|
口口口口
45
口口④口 |①--②|
口①①口 |--③-|
口②②口 |④---|
口③③口
46
口③口口 |①---|
②口口② |②---|
①口口① |③---|
口口口口
47
②口口③ |①---|
口②①③ |②---|
③①②口 |③---|
③口口②
48
②口①口 |①---|
②③①口 |②---|
口①③② |③---|
口①口②
49
口①①口 |①--②|
④口口④ |--③-|
③口口③ |④---|
口②②口
50
口口口口 |①---|
口②①口 |②---|
口①②口 |③---|
口③口口
51
口口口口 |①---|
口②③口 |②---|
口口口口 |③---|
口口口①
52
①口口口 |①---|
口②口口 |--②-|
口口③口 |③-④-|
口④口口
53
口口②② |①---|
①口口口 |②---|
①口口口 |③---|
③口③③
54
口①口③ |①---|
①口①口 |--②-|
口①②口 |③---|
口口口口
55
口口口口 |①-②-|
②①②① |③-④-|
④③④③ |⑤-⑥-|
⑤⑥⑤⑥
56
②口口① |①---|
③①②口 |②---|
口口口口 |③---|
口口口口
57
④口④口 |①-②-|
口⑤口⑤ |③-④-|
⑥①⑥① |⑤-⑥-|
③②③②
58
口①口① |①---|
口口②口 |②---|
口口④口 |③-④-|
口③口口
59
口口①口 |①---|
①口③③ |②---|
口②口口 |③---|
口口口口
60
口口口口 |①---|
口口口口 |②-③-|
③④⑤口 |④-⑤-|
③①②①
61
①②口① |①-②-|
③口④③ |③-④-|
⑤⑥口⑤ |⑤-⑥-|
口口口口
62
口口口口 |①-②-|
④②⑤④ |③-④-|
口⑥③口 |⑤-⑥-|
口①①口
63
口①口① |①-②-|
④⑤⑤④ |③-④-|
口⑥⑥口 |⑤-⑥-|
②③②③
64
①口口② |①---|
口口③口 |②---|
口口口① |③---|
②口口口
65
④口④口 |①-②-|
⑤①⑤① |③-④-|
②⑥②⑥ |⑤-⑥-|
③口③口
66
口①口① |①---|
口②口口 |②---|
口口④口 |③-④-|
口③口口
67
口①②① |①---|
③③口口 |②---|
口口口口 |③---|
口口口口
68
口口③③ |①---|
口口④口 |②-③-|
①②⑤口 |④-⑤-|
口口①口
69
口口口口 |①-②-|
口⑤⑥⑤ |③-④-|
③④口③ |⑤-⑥-|
口①②①
70
①①①① |①---|
口口口口 |②---|
口口②口 |③---|
③口口口
71
②①口口 |①---|
①③①口 |--②-|
④①口口 |③-④-|
口口口口
72
口口口口 |①---|
口③口口 |----|
口口②口 |②-③-|
口①①口
73
口①①② |①---|
口口③口 |--②-|
口口口④ |③-④-|
口口口口
74
口②口口 |①---|
口③口口 |----|
口口口口 |②-③-|
口①①口
75
②口②② |①---|
口口口口 |②---|
口①①① |③---|
③③③口
76
口③③口 |①---|
口②口口 |②---|
①①口① |③---|
口③③口
77
①口口① |①-②-|
口③④口 |③-④-|
口口②口 |⑤-⑥-|
口⑤⑥口
78
⑥⑦⑧⑨ |①②③④|
口口口口 |⑤⑥⑦⑧|
②③④⑤ |⑨---|
①口口口
79
口口④口 |①-②-|
④①口① |③-④-|
⑥⑤⑥⑤ |⑤-⑥-|
③②③②
80
①口口① |①---|
③②②口 |②---|
口口口口 |③---|
口②②口
81
④口口④ |①-②-|
⑤③③⑤ |③-④-|
②①②① |⑤-⑥-|
⑥口口⑥
82
口①①口 |①---|
口口口口 |②---|
②④③口 |③-④-|
口①①口
83
②口③③ |①---|
①口①口 |②---|
口口口口 |③---|
口口口口
84
③③口口 |①---|
④①②① |②-③-|
口口口口 |④-⑤-|
⑤口口口
85
口口口口 |①-②-|
⑤口⑥⑤ |③-④-|
③④③口 |⑤-⑥-|
口①②①
86
④④①① |①-②-|
口②口⑤ |③-④-|
口⑥③口 |⑤-⑥-|
口口口口
87
口④⑤④ |①-②-|
⑤口口口 |③-④-|
①⑥⑥① |⑤-⑥-|
②③③②
88
①口口口 |①---|
口①②② |②---|
口口口③ |③---|
口口②②
89
口①④① |①-②-|
④③③⑤ |③-④-|
口口②⑥ |⑤-⑥-|
⑤②⑥口
90
①①口口 |①---|
口②口口 |②---|
①①口口 |③-④-|
口③④口
91
③口③口 |①---|
口②口口 |②---|
口①口① |③---|
口口口口
92
口③口口 |①---|
③口②口 |②-③-|
①口①口 |④-⑤-|
④④⑤⑤
93
口口①② |①---|
口①口① |②---|
口口①③ |③---|
口口口口
94
口口口口 |①-②-|
口②口口 |--③-|
口①④口 |④---|
口口③口
95
①口口口 |①---|
②口口口 |②---|
③口口口 |③---|
口口口口
96
口口口口 |①-②-|
口⑤②口 |--③-|
口④①口 |④-⑤-|
口③口口

accuracy: 100%
最終更新:2022年04月14日 12:08