アットウィキロゴ
Prey
BEMANI Sound Team "Dustup"

BASIC

Level: 6
BPM: 210
Notes: 382

1
口口口口 |----|
口口口口 |----|
口口口口 |----|
口口口口 |----|
2
①口口口 |①---|
②口口口 |----|
口口口口 |②---|
口口口口 |----|
3
口口口口 |①---|
口口口口 |----|
①口口口 |②---|
②口口口 |----|
4
口口口① |①---|
口口口② |----|
口口口口 |②---|
口口口口 |----|
5
口口口口 |①---|
口口口口 |----|
口口口① |②---|
口口口② |----|
6
口①口口 |①---|
口②口口 |----|
口口口口 |②---|
口口口口 |----|
7
口口口口 |①---|
口口口口 |----|
口①口口 |②---|
口②口口 |----|
8
口口①口 |①---|
口口②口 |----|
口口口口 |②---|
口口口口 |----|
9
口口口口 |①---|
口口口口 |----|
口口①口 |②---|
口口②口 |----|
10
①口口口 |①---|
②口口口 |----|
口口口口 |②---|
口口口口 |----|
11
口口口口 |①---|
口口口口 |----|
①口口口 |②---|
②口口口 |----|
12
口口口① |①---|
口口口② |----|
口口口口 |②---|
口口口口 |----|
13
口口口口 |①---|
口口口口 |----|
口口口① |②---|
口口口② |----|
14
口①口口 |①---|
口②口口 |----|
口口口口 |②---|
口口口口 |----|
15
口口口口 |①---|
口口口口 |----|
口①口口 |②---|
口②口口 |----|
16
口口①口 |①---|
口口②口 |----|
口口口口 |②---|
口口口口 |----|
17
口口口口 |①---|
口口口口 |----|
口口①口 |②---|
口口②口 |----|
18
①口口② |①---|
③口口④ |②---|
口口口口 |③---|
口口口口 |④---|
19
口口口口 |①---|
口口口口 |②---|
①口口② |③---|
③口口④ |④---|
20
口①②口 |①---|
口③④口 |②---|
口口口口 |③---|
口口口口 |④---|
21
口口口口 |①---|
口口口口 |----|
口①口口 |----|
口口口口 |----|
22
③③①① |①---|
口②④口 |②---|
口口口口 |③---|
口口口口 |④---|
23
口口口口 |①---|
口口口口 |②---|
口④②口 |③---|
①①③③ |④---|
24
口口口口 |①---|
③③①① |②---|
②口口④ |③---|
口口口口 |④---|
25
口口口口 |①---|
口口口口 |②---|
口④②口 |③---|
①①③③ |④---|
26
③③①① |①---|
口②④口 |②---|
口口口口 |③---|
口口口口 |④---|
27
口口口口 |①---|
口口口口 |②---|
口④②口 |③---|
①①③③ |④---|
28
口口口口 |①---|
③③①① |②---|
②口口④ |③---|
口口口口 |④---|
29
口口口口 |①---|
口口口口 |②---|
口④②口 |③---|
①①③③ |④---|
30
③③①① |①---|
口口口口 |②---|
口口口口 |③---|
②②④④ |④---|
31
口口口口 |①---|
①①③③ |②---|
④④②② |③---|
口口口口 |④---|
32
②②④④ |①---|
口口口口 |②---|
口口口口 |③---|
③③①① |④---|
33
口口口口 |①---|
④④②② |②---|
①①③③ |③---|
口口口口 |④---|
34
③③①① |①---|
口口口口 |②---|
口口口口 |③---|
②②④④ |④---|
35
口口口口 |①---|
①①③③ |②---|
④④②② |③---|
口口口口 |④---|
36
②②④④ |①---|
口口口口 |②---|
口口口口 |③---|
③③①① |④---|
37
口口口口 |①---|
④④②② |②---|
①①③③ |③---|
口口口口 |④---|
38
口口口口 |①---|
口口口口 |----|
口口口口 |----|
口口①口 |----|
39
口口口口 |----|
口口口口 |----|
口口口口 |----|
口口口口 |----|
40
口口口口 |①---|
口①口口 |----|
口口口口 |----|
口口口口 |----|
41
口口口口 |①---|
口口口口 |----|
口口①口 |----|
口口口口 |----|
42
口口①口 |①---|
口口口口 |----|
口口口口 |----|
口口口口 |----|
43
口口口口 |----|
口口口口 |----|
口口口口 |----|
口口口口 |----|
44
口口口口 |①---|
口①口口 |----|
口口口口 |----|
口口口口 |----|
45
口口口口 |①---|
口口口口 |----|
口口①口 |----|
②口口口 |②---|
46
口口口口 |①---|
①口③口 |②---|
口②口④ |③---|
口口口口 |④---|
47
口口口口 |①---|
口③口① |②---|
④口②口 |③---|
口口口口 |④---|
48
口口④口 |①---|
口口口③ |②---|
口口口② |③---|
口口①口 |④---|
49
口④口口 |①---|
③口口口 |②---|
②口口口 |③---|
口①口口 |④---|
50
口口口口 |①---|
④口②口 |②---|
口③口① |③---|
口口口口 |④---|
51
口口口口 |①---|
口②口④ |②---|
①口③口 |③---|
口口口口 |④---|
52
口④口口 |①---|
③口口口 |②---|
②口口口 |③---|
口①口口 |④---|
53
口口口口 |①---|
口②②口 |----|
口口口口 |②---|
口口①口 |----|
54
口口口① |①---|
口口口口 |②---|
口⑤④③ |③-④-|
②口口口 |⑤---|
55
①口口口 |①---|
③④⑤口 |②---|
口口口口 |③-④-|
口口口② |⑤---|
56
口口口① |①---|
口口口口 |②---|
口⑤④③ |③-④-|
②口口口 |⑤---|
57
①口口口 |①---|
③④⑤口 |②---|
口口口口 |③-④-|
口口口② |⑤---|
58
口口口① |①---|
口口⑤口 |②---|
口口④口 |③-④-|
②口③口 |⑤---|
59
①③口口 |①---|
口④口口 |②---|
口⑤口口 |③-④-|
口口口② |⑤---|
60
口口口① |①---|
口口⑤口 |②---|
口口④口 |③-④-|
②口③口 |⑤---|
61
①③口口 |①---|
口④口口 |②---|
口⑤口口 |③-④-|
口口口② |⑤---|
62
②口口① |①-②-|
④口⑦③ |③-④-|
口口⑥口 |⑤-⑥-|
口口⑤口 |⑦---|
63
口口口口 |①-②-|
口⑦口口 |③-④-|
③⑥口④ |⑤-⑥-|
①⑤口② |⑦---|
64
②口⑤① |①-②-|
④口⑥③ |③-④-|
口口⑦口 |⑤-⑥-|
口口口口 |⑦---|
65
口⑤口口 |①-②-|
口⑥口口 |③-④-|
③⑦口④ |⑤-⑥-|
①口口② |⑦---|
66
②口口① |①-②-|
④口⑦③ |③-④-|
口口⑥口 |⑤-⑥-|
口口⑤口 |⑦---|
67
口口口口 |①-②-|
口⑦口口 |③-④-|
③⑥口④ |⑤-⑥-|
①⑤口② |⑦---|
68
②口⑤① |①-②-|
④口⑥③ |③-④-|
口口⑦口 |⑤-⑥-|
口口口口 |⑦---|
69
口口口口 |①---|
口口口口 |----|
口①口口 |----|
口口口口 |----|
70
④口口⑤ |①--②|
口口口③ |--③-|
②口口口 |-④--|
口口口① |⑤---|
71
口口④口 |①--②|
口③口口 |--③-|
⑤口②口 |-④--|
口①口口 |⑤---|
72
口④口⑤ |①--②|
口口③口 |--③-|
口②口口 |-④--|
口口①口 |⑤---|
73
①口①口 |①--②|
口②⑤② |--③-|
③口③口 |-④--|
口④口④ |⑤---|
74
⑤口口④ |①--②|
③口口口 |--③-|
口口口② |-④--|
①口口口 |⑤---|
75
口④口口 |①--②|
口口③口 |--③-|
口②口⑤ |-④--|
口口①口 |⑤---|
76
⑤口④口 |①--②|
口③口口 |--③-|
口口②口 |-④--|
口①口口 |⑤---|
77
口①口① |①--②|
③⑤④口 |--③-|
口⑦⑥口 |④-⑤-|
②口②口 |⑥-⑦-|
78
④口口⑤ |①--②|
口口口③ |--③-|
②口口口 |-④--|
口口口① |⑤---|
79
口口④口 |①--②|
口③口口 |--③-|
⑤口②口 |-④--|
口①口口 |⑤---|
80
口④口⑤ |①--②|
口口③口 |--③-|
口②口口 |-④--|
口口①口 |⑤---|
81
①口①口 |①--②|
口②⑤② |--③-|
③口③口 |-④--|
口④口④ |⑤---|
82
⑤口口④ |①--②|
③口口口 |--③-|
口口口② |-④--|
①口口口 |⑤---|
83
口④口口 |①--②|
口口③口 |--③-|
口②口⑤ |-④--|
口口①口 |⑤---|
84
⑤口④口 |①--②|
口③口口 |--③-|
口口②口 |-④--|
口①口口 |⑤---|
85
口①口① |①--②|
③⑤④口 |--③-|
口⑦⑥口 |④-⑤-|
②口②口 |⑥-⑦-|
86
口口①口 |①---|
口口口口 |----|
口口口口 |----|
口口口口 |----|

accuracy: 100%
最終更新:2022年05月02日 19:22