アットウィキロゴ
Prey
BEMANI Sound Team "Dustup"

ADVANCED

Level: 9.2
BPM: 210
Notes: 623

1
口口口口 |----|
口口口口 |----|
口口口口 |----|
口口口口 |----|
2
①③口口 |①---|
口口口口 |②---|
口口口口 |③---|
口口④② |④---|
3
口口①③ |①---|
口口口口 |②---|
口口口口 |③---|
④②口口 |④---|
4
口口口口 |①---|
①③口口 |②---|
口口④② |③---|
口口口口 |④---|
5
口口口口 |①---|
口口①③ |②---|
④②口口 |③---|
口口口口 |④---|
6
口口口口 |①---|
①③口口 |②---|
口口口口 |③---|
口口④② |④---|
7
口口口口 |①---|
口口①③ |②---|
口口口口 |③---|
④②口口 |④---|
8
口口口口 |①---|
口口口口 |②---|
①③口口 |③---|
口口④② |④---|
9
口口口口 |①---|
口口口口 |②---|
口口①③ |③---|
④②口口 |④---|
10
①③口口 |①---|
①口口口 |②---|
口口口口 |③---|
口口④② |④---|
11
口口①③ |①---|
口口口口 |②---|
口口口口 |③---|
④②口口 |④---|
12
①口口口 |①---|
①③口口 |②---|
口口④② |③---|
口口口口 |④---|
13
口口口口 |①---|
口口①③ |②---|
④②口口 |③---|
口口口口 |④---|
14
①口口口 |①---|
①③口口 |②---|
口口口口 |③---|
口口④② |④---|
15
口口口口 |①---|
口口①③ |②---|
口口口口 |③---|
④②口口 |④---|
16
口口口口 |①---|
①口口口 |②---|
①③口口 |③---|
口口④② |④---|
17
口口口口 |①---|
口口口口 |②---|
口口①③ |③---|
④②口口 |④---|
18
①③口口 |①-②-|
⑤⑦口口 |③-④-|
口口⑧⑥ |⑤-⑥-|
口口④② |⑦-⑧-|
19
口口⑧⑥ |①-②-|
口口④② |③-④-|
①③口口 |⑤-⑥-|
⑤⑦口口 |⑦-⑧-|
20
①口口⑧ |①-②-|
⑤口④口 |③-④-|
口③口⑥ |⑤-⑥-|
⑦口口② |⑦-⑧-|
21
口口口口 |①---|
口①口口 |----|
②③④⑤ |②③④⑤|
⑥⑦⑧⑨ |⑥⑦⑧⑨|
22
⑤①口④ |①-②-|
①③②口 |③-④-|
⑤⑦⑥口 |⑤-⑥-|
口口⑧口 |⑦-⑧-|
23
口口①⑤ |①-②-|
口④③① |③-④-|
口⑧⑦⑤ |⑤-⑥-|
②⑥口口 |⑦-⑧-|
24
①①口口 |①-②-|
⑤⑦⑥② |③-④-|
⑤口口口 |⑤-⑥-|
③口⑧④ |⑦-⑧-|
25
口口①① |①-②-|
口口口⑤ |③-④-|
口②③⑤ |⑤-⑥-|
⑥④⑧⑦ |⑦-⑧-|
26
⑤①口④ |①-②-|
①③②口 |③-④-|
⑤⑦⑥口 |⑤-⑥-|
口口⑧口 |⑦-⑧-|
27
口口①⑤ |①-②-|
口④③① |③-④-|
口⑧⑦⑤ |⑤-⑥-|
②⑥口口 |⑦-⑧-|
28
①①口口 |①-②-|
⑤⑦⑥② |③-④-|
⑤口口口 |⑤-⑥-|
③口⑧④ |⑦-⑧-|
29
口口①① |①-②-|
口口口⑤ |③-④-|
口②③⑤ |⑤-⑥-|
⑥④⑧⑦ |⑦-⑧-|
30
口①⑤口 |①-②-|
①③②⑤ |③-④-|
口⑥④⑦ |⑤-⑥-|
口⑧口口 |⑦-⑧-|
31
口①⑤口 |①-②-|
①⑥口⑤ |③-④-|
口⑧⑦口 |⑤-⑥-|
③口④② |⑦-⑧-|
32
①⑥口⑤ |①-②-|
口⑧②⑦ |③-④-|
①口口⑤ |⑤-⑥-|
口③口④ |⑦-⑧-|
33
①口口⑤ |①-②-|
口口口口 |③-④-|
①③②⑤ |⑤-⑥-|
⑥⑧④⑦ |⑦-⑧-|
34
口①⑤口 |①-②-|
①③②⑤ |③-④-|
口⑥④⑦ |⑤-⑥-|
口⑧口口 |⑦-⑧-|
35
口①⑤口 |①-②-|
①⑥口⑤ |③-④-|
口⑧⑦口 |⑤-⑥-|
③口④② |⑦-⑧-|
36
①⑥口⑤ |①-②-|
口⑧②⑦ |③-④-|
①口口⑤ |⑤-⑥-|
口③口④ |⑦-⑧-|
37
①口口⑤ |①-②-|
口口口口 |③-④-|
①③②⑤ |⑤-⑥-|
⑥⑧④⑦ |⑦-⑧-|
38
口口口口 |①---|
口①口口 |----|
口口口口 |----|
口口口口 |----|
39
口口口口 |----|
口口口口 |----|
口口口口 |----|
口口口口 |----|
40
口口①口 |①---|
口口口口 |----|
口口口口 |----|
口口口口 |----|
41
口口口口 |①---|
口口口口 |----|
口①口口 |----|
口口口口 |----|
42
②口口口 |①---|
口口①口 |----|
口口口口 |②---|
口口口口 |----|
43
口口口① |----|
口口口口 |----|
口口口口 |①---|
口口口口 |----|
44
口②口口 |①---|
口口口口 |----|
口口口口 |②---|
口①口口 |----|
45
口口口③ |--①-|
口口口口 |--②-|
口口①⑤ |③---|
②口口④ |④-⑤-|
46
④口口口 |①---|
口口③① |②---|
口②口口 |③---|
口口口口 |④---|
47
口口口① |①---|
口口口口 |②---|
②④口口 |③---|
口口③口 |④---|
48
口口口口 |①---|
④口①口 |②---|
口口口③ |③---|
②口口口 |④---|
49
口口①口 |①---|
口口③口 |②---|
⑤②口口 |③---|
④口口口 |④-⑤-|
50
口口口④ |①---|
①③口口 |②---|
口口②口 |③---|
口口口口 |④---|
51
①口口口 |①---|
口口④口 |②---|
口口口② |③---|
口③口口 |④---|
52
①口口④ |①-②-|
口⑤⑧口 |③-④-|
口⑦⑥口 |⑤-⑥-|
③口口② |⑦-⑧-|
53
①①口口 |①---|
口口口口 |----|
⑨⑧⑦⑥ |②③④⑤|
⑤④③② |⑥⑦⑧⑨|
54
口③⑦① |①-②-|
④口②⑥ |③-④-|
口口口口 |⑤-⑥-|
口⑧⑤口 |⑦-⑧-|
55
口③口① |①-②-|
⑤⑥⑦⑧ |③-④-|
④口②口 |⑤⑥⑦⑧|
⑨口口口 |⑨---|
56
①口③口 |①-②-|
口⑦口口 |③-④-|
⑥②口④ |⑤-⑥-|
口⑤⑧口 |⑦-⑧-|
57
⑤⑥⑦⑧ |①-②-|
①口③口 |③-④-|
口②口④ |⑤⑥⑦⑧|
⑨⑩⑪⑫ |⑨⑩⑪⑫|
58
⑥⑦口口 |①-②-|
口②口④ |③-④-|
①⑤③口 |⑤-⑥-|
口口口口 |⑦---|
59
口口⑦口 |①-②-|
④口②口 |③-④-|
口口口⑥ |⑤-⑥-|
口③⑤① |⑦---|
60
口②口④ |①-②-|
⑤口口口 |③-④-|
①⑥③口 |⑤-⑥-|
⑦口口口 |⑦---|
61
⑤口①口 |①-②③|
口②③④ |④-⑤-|
⑬⑫⑪⑩ |⑥⑦⑧⑨|
⑨⑧⑦⑥ |⑩⑪⑫⑬|
62
口③⑦① |①-②-|
④口②⑥ |③-④-|
口口口口 |⑤-⑥-|
口⑧⑤口 |⑦-⑧-|
63
口③口① |①-②-|
⑤⑥⑦⑧ |③-④-|
④口②口 |⑤⑥⑦⑧|
⑨口口口 |⑨---|
64
①口③口 |①-②-|
口⑦口口 |③-④-|
⑥②口④ |⑤-⑥-|
口⑤⑧口 |⑦-⑧-|
65
⑤⑥⑦⑧ |①-②-|
①口③口 |③-④-|
口②口④ |⑤⑥⑦⑧|
⑨⑩⑪⑫ |⑨⑩⑪⑫|
66
⑥⑦口口 |①-②-|
口②口④ |③-④-|
①⑤③口 |⑤-⑥-|
口口口口 |⑦---|
67
口口⑦口 |①-②-|
④口②口 |③-④-|
口口口⑥ |⑤-⑥-|
口③⑤① |⑦---|
68
口②口④ |①-②-|
⑤口口口 |③-④-|
①⑥③口 |⑤-⑥-|
⑦口口口 |⑦---|
69
③口①④ |①--②|
口⑧⑦⑥ |--③-|
⑤口口口 |④-⑤-|
口②口口 |⑥⑦⑧-|
70
⑤④③⑤ |①--②|
②口口口 |--③-|
口③④② |-④--|
①口口① |⑤---|
71
口④③口 |①--②|
②⑤⑥口 |--③-|
口③④② |-④--|
口①①口 |⑤-⑥-|
72
⑦口⑥口 |①②③④|
口⑧⑨⑥ |⑤-⑥-|
⑤口口⑦ |-⑦--|
①②③④ |⑧-⑨-|
73
④①口② |①--②|
①口口口 |--③-|
③③②口 |-④--|
⑦⑥⑤口 |⑤⑥⑦-|
74
⑤口②⑤ |①--②|
③②①④ |--③-|
口④③① |-④--|
口口口口 |⑤---|
75
口④③口 |①--②|
④②①口 |--③-|
③⑥⑤② |-④--|
①口口口 |⑤-⑥-|
76
口⑦口⑥ |①②③④|
口口⑤⑧ |--⑤-|
⑥口口⑤ |-⑥--|
④③②① |⑦-⑧-|
77
④口③⑤ |①--②|
①⑥⑦⑧ |--③-|
口①③口 |④-⑤-|
口②②口 |⑥⑦⑧-|
78
⑤④③⑤ |①--②|
②口口口 |--③-|
①③④② |-④--|
①口口① |⑤---|
79
口④③口 |①--②|
②⑤⑥口 |--③-|
口③④② |-④--|
①①①口 |⑤-⑥-|
80
⑦口⑥口 |①②③④|
口⑧⑨⑥ |⑤-⑥-|
⑤口口⑦ |-⑦--|
①②③④ |⑧-⑨-|
81
④①口② |①--②|
①口口口 |--③-|
③③②口 |-④--|
⑦⑥⑤口 |⑤⑥⑦-|
82
⑤①②⑤ |①--②|
③②①④ |--③-|
口④③① |-④--|
口口口口 |⑤---|
83
口④③口 |①--②|
④②①口 |--③-|
③⑥⑤② |-④--|
①①口口 |⑤-⑥-|
84
口⑦口⑥ |①②③④|
口口⑤⑧ |--⑤-|
⑥口口⑤ |-⑥--|
④③②① |⑦-⑧-|
85
④口③⑤ |①--②|
①⑥⑦⑧ |--③-|
口①③口 |④-⑤-|
口②②口 |⑥⑦⑧-|
86
口口口口 |①---|
口口口口 |----|
口①口口 |----|
口口口口 |----|

accuracy: 100%
最終更新:2022年05月04日 02:37