アットウィキロゴ
Prey
BEMANI Sound Team "Dustup"

EXTREME

Level: 10.6
BPM: 210
Notes: 733

1
口口口口 |----|
口口口口 |----|
口口口口 |----|
口口口口 |----|
2
①③口口 |①---|
口口口口 |②---|
口口①口 |③---|
②④口口 |④---|
3
口口①③ |①---|
口口口口 |②---|
口口口口 |③---|
口口②④ |④---|
4
口口口口 |①---|
①③口口 |②---|
口①口口 |③---|
②④口口 |④---|
5
口口②③ |①---|
口口口口 |②---|
口口①口 |③---|
口口口④ |④---|
6
口口口口 |①---|
①③①口 |②---|
口口口口 |③---|
②④口口 |④---|
7
口口口口 |①---|
口口①③ |②---|
口口口口 |③---|
口口②④ |④---|
8
①③口口 |①---|
口口①口 |②---|
口口口口 |③---|
②④口口 |④---|
9
口口①③ |①---|
口口口口 |②---|
口口口口 |③---|
口口②④ |④---|
10
①③口口 |①---|
口口③口 |②---|
口口①口 |③---|
②④口口 |④---|
11
口口①③ |①---|
口③口口 |②---|
口①口口 |③---|
口口②④ |④---|
12
口口口口 |①---|
①③③口 |②---|
口①①口 |③---|
②④口口 |④---|
13
口口②③ |①---|
口③口口 |②---|
⑤①①口 |③---|
口口④④ |④-⑤-|
14
口口口口 |①---|
①③①③ |②---|
口口口口 |③---|
②④口口 |④---|
15
口口口口 |①---|
①口①③ |②---|
口③口口 |③---|
口④②④ |④---|
16
①③口口 |①---|
口①①口 |②---|
口口③口 |③---|
②④口口 |④---|
17
口口①③ |①---|
口③口口 |②---|
⑤①口口 |③---|
口口②④ |④-⑤-|
18
④⑧①口 |①-②-|
口口⑤口 |③-④-|
口⑥口③ |⑤-⑥-|
②口⑦口 |⑦-⑧-|
19
口口⑤① |①-②-|
④⑧口口 |③-④-|
②口口口 |⑤-⑥-|
⑥口⑦③ |⑦-⑧-|
20
④⑧⑬① |①②③④|
⑫⑯⑤⑨ |⑤⑥⑦⑧|
⑩⑥⑪③ |⑨⑩⑪⑫|
⑭②⑮⑦ |⑬⑭⑮⑯|
21
口口口① |①---|
口口口口 |----|
⑤④③② |②③④⑤|
⑨⑧⑦⑥ |⑥⑦⑧⑨|
22
⑤⑧②④ |①-②-|
⑦③⑥① |③-④-|
口口口口 |⑤-⑥-|
口口口口 |⑦-⑧-|
23
⑭⑮⑩⑪ |①②③④|
⑯⑬⑫⑨ |⑤⑥⑦⑧|
⑥⑦②③ |⑨⑩⑪⑫|
⑧⑤④① |⑬⑭⑮⑯|
24
口⑪⑫⑧ |①-②-|
口⑨⑩口 |③④⑤⑥|
③口②④ |⑦-⑧-|
⑦⑤⑥① |⑨⑩⑪⑫|
25
①口口口 |①-②-|
⑤口口口 |③-④-|
③⑧⑦④ |⑤-⑥-|
⑥⑩⑨② |⑦⑧⑨⑩|
26
⑤⑧②④ |①-②-|
⑦③⑥① |③-④-|
口口口口 |⑤-⑥-|
口口口口 |⑦-⑧-|
27
⑭⑮⑩⑪ |①②③④|
⑯⑬⑫⑨ |⑤⑥⑦⑧|
⑥⑦②③ |⑨⑩⑪⑫|
⑧⑤④① |⑬⑭⑮⑯|
28
口⑪⑫⑧ |①-②-|
口⑨⑩口 |③④⑤⑥|
③口②④ |⑦-⑧-|
⑦⑤⑥① |⑨⑩⑪⑫|
29
①口口口 |①-②-|
⑤口口口 |③-④-|
③⑧⑦④ |⑤-⑥-|
⑥⑩⑨② |⑦⑧⑨⑩|
30
②⑥⑤① |①②③④|
⑧④③⑦ |⑤⑥⑦⑧|
口口⑪⑩ |⑨-⑩-|
口口⑫⑨ |⑪-⑫-|
31
⑨⑫⑤⑧ |①②③④|
⑪⑩⑦⑥ |⑤⑥⑦⑧|
①④⑬⑯ |⑨⑩⑪⑫|
③②⑮⑭ |⑬⑭⑮⑯|
32
⑧⑫③⑨ |①-②-|
口⑩⑤⑦ |③④⑤⑥|
②④口口 |⑦-⑧-|
⑥①⑪口 |⑨⑩⑪⑫|
33
口口③口 |①-②-|
②口口口 |③-④-|
⑤⑧⑦① |⑤-⑥-|
⑥⑩⑨④ |⑦⑧⑨⑩|
34
②⑥⑤① |①②③④|
⑧④③⑦ |⑤⑥⑦⑧|
口口⑪⑩ |⑨-⑩-|
口口⑫⑨ |⑪-⑫-|
35
⑨⑫⑤⑧ |①②③④|
⑪⑩⑦⑥ |⑤⑥⑦⑧|
①④⑬⑯ |⑨⑩⑪⑫|
③②⑮⑭ |⑬⑭⑮⑯|
36
⑧⑫③⑨ |①-②-|
口⑩⑤⑦ |③④⑤⑥|
②④口口 |⑦-⑧-|
⑥①⑪口 |⑨⑩⑪⑫|
37
口口③口 |①-②-|
②口口口 |③-④-|
⑤⑧⑦① |⑤-⑥-|
⑥⑩⑨④ |⑦⑧⑨⑩|
38
口口口① |①---|
口口口口 |----|
口口口口 |----|
口口口口 |----|
39
口口口口 |----|
口口口口 |----|
口口口口 |----|
口口口口 |----|
40
①口口口 |①---|
口口口口 |----|
口口口口 |----|
口口口口 |----|
41
口口口口 |①---|
口①口口 |----|
口口口口 |----|
口口口口 |----|
42
②口口口 |①---|
口口①口 |----|
口口口口 |②---|
口口口口 |----|
43
口口口① |----|
口口口口 |----|
口口口口 |①---|
口口口口 |----|
44
②口口口 |①---|
口口口口 |----|
口④口① |②-③-|
③口口口 |--④-|
45
口口口③ |--①-|
口②⑤口 |--②-|
口口口④ |③---|
口口口① |④-⑤-|
46
口①口口 |①---|
④口口口 |②---|
口口③口 |③---|
②口口口 |④---|
47
口口口① |①---|
口②④口 |②---|
口口口口 |③---|
口口③口 |④---|
48
①口口口 |①---|
口口口口 |②---|
口④口口 |③---|
口②口③ |④---|
49
口口口① |①---|
②口口口 |②---|
口⑤③口 |③---|
④口口口 |④-⑤-|
50
口口①口 |①---|
口口④① |②---|
口口口口 |③---|
口③②口 |④---|
51
口①口口 |①---|
①口口口 |②---|
④②口口 |③---|
口口口③ |④---|
52
口⑤①口 |①-②-|
⑤⑦③① |③-④-|
口④⑧口 |⑤-⑥-|
口⑥②口 |⑦-⑧-|
53
②口口③ |①---|
④口口⑤ |----|
⑥口口⑦ |②③④⑤|
①⑧⑨① |⑥⑦⑧⑨|
54
⑤⑥②口 |①-②-|
⑦⑧④口 |③-④-|
⑨口口口 |⑤⑥⑦⑧|
①口⑩③ |⑨-⑩-|
55
⑪口⑤④ |①-②-|
口口⑦⑥ |③-④⑤|
口①⑨⑧ |⑥⑦⑧⑨|
②③口⑩ |⑩-⑪-|
56
口②口口 |①-②-|
④⑤口口 |③-④⑤|
⑥⑦⑩口 |⑥⑦⑧-|
⑧③①⑨ |⑨-⑩-|
57
①④⑥⑤ |①-②-|
口口⑧⑦ |③-④-|
⑩⑨口② |⑤⑥⑦⑧|
⑫⑪③口 |⑨⑩⑪⑫|
58
④口⑥⑦ |①-②-|
口②⑧口 |③-④-|
⑨口口⑤ |⑤-⑥⑦|
口口③① |⑧-⑨-|
59
⑧①口⑦ |①-②-|
⑤④口口 |③-④⑤|
⑫⑥③⑪ |⑥-⑦⑧|
⑩②口⑨ |⑨⑩⑪⑫|
60
⑨③①口 |①-②-|
⑤口⑧④ |③-④⑤|
口⑦⑥⑩ |⑥⑦⑧-|
⑪口②口 |⑨-⑩⑪|
61
口⑤口⑥ |①-②-|
④②口⑧ |③-④-|
⑦⑨⑩⑫ |⑤⑥⑦⑧|
口⑪③① |⑨⑩⑪⑫|
62
⑤⑥②口 |①-②-|
⑦⑧④口 |③-④-|
⑨口口口 |⑤⑥⑦⑧|
①口⑩③ |⑨-⑩-|
63
⑪口⑤④ |①-②-|
口口⑦⑥ |③-④⑤|
口①⑨⑧ |⑥⑦⑧⑨|
②③口⑩ |⑩-⑪-|
64
口②口口 |①-②-|
④⑤口口 |③-④⑤|
⑥⑦⑩口 |⑥⑦⑧-|
⑧③①⑨ |⑨-⑩-|
65
①④⑥⑤ |①-②-|
口口⑧⑦ |③-④-|
⑩⑨口② |⑤⑥⑦⑧|
⑫⑪③口 |⑨⑩⑪⑫|
66
④口⑥⑦ |①-②-|
口②⑧口 |③-④-|
⑨口口⑤ |⑤-⑥⑦|
口口③① |⑧-⑨-|
67
⑧①口⑦ |①-②-|
⑤④口口 |③-④⑤|
⑫⑥③⑪ |⑥-⑦⑧|
⑩②口⑨ |⑨⑩⑪⑫|
68
⑨③①口 |①-②-|
⑤口⑧④ |③-④⑤|
口⑦⑥⑩ |⑥⑦⑧-|
⑪口②口 |⑨-⑩⑪|
69
口②②③ |①--②|
④⑥⑦⑧ |--③-|
口口口口 |④-⑤-|
口口⑤① |⑥⑦⑧-|
70
⑤②口④ |①--②|
口口口口 |--③-|
①口③口 |-④--|
⑤①口口 |⑤---|
71
口口口口 |①--②|
④口②⑤ |--③-|
③⑥⑦① |-④--|
⑧口口⑤ |⑤⑥⑦⑧|
72
④口口⑦ |①②③④|
口②③口 |--⑤-|
⑩⑧⑨⑤ |-⑥--|
口⑥①口 |⑦⑧⑨⑩|
73
③⑤口⑥ |①--②|
口②口① |--③-|
⑦口⑧口 |-④--|
②④①口 |⑤⑥⑦⑧|
74
⑤口④口 |①--②|
①口②口 |--③-|
口①口口 |-④--|
⑤口口③ |⑤---|
75
口口口① |①--②|
④⑥②口 |--③-|
③口⑦① |-④--|
⑧口口⑤ |⑤⑥⑦⑧|
76
②⑤口③ |①②③④|
⑦⑨⑥⑧ |--⑤-|
⑦⑥口⑤ |-⑥--|
口④①⑩ |⑦⑧⑨⑩|
77
①口①④ |①--②|
⑥⑦⑧口 |--③-|
口口③⑤ |④-⑤-|
②口②口 |⑥⑦⑧-|
78
⑨③口⑦ |①-②③|
口⑩口⑧ |④-⑤-|
①④⑤口 |⑥⑦⑧-|
⑨①⑥② |⑨-⑩-|
79
口②④⑥ |①-②③|
⑦口③⑨ |④-⑤-|
⑤⑩⑪① |⑥⑦⑧-|
⑫⑧口⑨ |⑨⑩⑪⑫|
80
④⑨⑤⑩ |①②③④|
⑦②③口 |⑤-⑥-|
⑬⑪⑫⑥ |⑦⑧⑨-|
口⑧①口 |⑩⑪⑫⑬|
81
⑤⑨⑥⑩ |①-②③|
口③④① |④-⑤-|
⑪口⑫⑧ |⑥⑦⑧-|
③⑦①② |⑨⑩⑪⑫|
82
⑨口⑦口 |①-②③|
①④③⑥ |④-⑤-|
口①⑩口 |⑥⑦⑧-|
⑨⑧②⑤ |⑨-⑩-|
83
口④⑥① |①-②③|
⑦⑩③⑧ |④-⑤-|
⑤②⑪① |⑥⑦⑧-|
⑫口口⑨ |⑨⑩⑪⑫|
84
②⑥⑨③ |①②③④|
⑩⑭⑦⑪ |⑤⑥⑦⑧|
⑫④⑮⑤ |⑨⑩⑪⑫|
⑯⑧①⑬ |⑬⑭⑮⑯|
85
口口④③ |①--②|
⑥⑦⑧口 |--③-|
口②口⑤ |④-⑤-|
口口①口 |⑥⑦⑧-|
86
口口口口 |①---|
口口口口 |----|
口口口口 |----|
①口口口 |----|

accuracy: 100%
最終更新:2022年05月04日 03:44