アットウィキロゴ
rejoin
BEMANI Sound Team "HuΣeR feat.PON"

ADVANCED

Level: 10.1
BPM: 135
Notes(hold): 873(10)

1
口口口口 |----|
口口口口 |----|
口口口口 |----|
口口口口 |----|
2
⑥①⑥③ |①-②③|
①⑦③⑦ |-④⑤-|
⑧⑤⑧口 |⑥--⑦|
口②④口 |--⑧-|
3
⑥①⑥③ |①-②③|
①⑦③⑦ |-④⑤-|
⑧⑨口口 |⑥--⑦|
口②⑤④ |--⑧⑨|
4
口③口① |①-②③|
③口①口 |-④⑤-|
口口口口
口④⑤②

⑦口⑥口
⑧口口⑧
口⑦口⑥ |⑥--⑦|
口口口口 |--⑧-|
5
口②②口 |①---|
口①①口 |②---|
⑦⑧⑨⑩ |③④⑤⑥----|
③④⑤⑥ |⑦⑧⑨⑩----|
6
⑥①⑥③ |①-②③|
①⑦③⑦ |-④⑤-|
⑧⑤⑧口 |⑥--⑦|
口②④口 |--⑧-|
7
⑥①⑥③ |①-②③|
①⑦③⑦ |-④⑤-|
⑧⑨口⑤ |⑥--⑦|
口②④口 |--⑧⑨|
8
口③口① |①-②③|
③口①口 |-④⑤-|
口口口口
口④⑤②

⑦口⑥口
⑧口口⑧
口⑦口⑥ |⑥--⑦|
口口口口 |--⑧-|
9
口②口① |①-②-|
口口口口 |③-④-|
②口①口
④④③③

口⑪口口
⑧⑦⑥⑤
口⑪⑩⑨ |⑤⑥⑦⑧⑨⑩|
口口口口 |⑪---|
10
①口③① |①---|
口②口口 |②--③|
口口口③
②口②口

④口口口
口口⑤口
⑥口口口 |--④-|
口口口口 |⑤-⑥-|
11
口⑥③① |①-②-|
②口⑦⑤ |③-④-|
口⑧①③ |⑤-⑥-|
④口⑤⑦ |⑦-⑧-|
12
①口③① |①---|
口②口口 |②--③|
口口口③
②口②口

口⑧口⑩
⑦口⑨口
④⑤⑥口 |-④⑤⑥|
口口口口 |⑦⑧⑨⑩|
13
④口③口 |①-②-|
口①口口 |③④--|
口口口②
①口口口

口⑤口口
⑤口口⑥
⑦口⑥⑦ |⑤-⑥-|
口口口口 |⑦---|
14
①③口① |①---|
口口②口 |②--③|
③口口口
口②口②

口口口④
口⑤口口
口口口⑥ |--④-|
口口口口 |⑤-⑥-|
15
①③⑥口 |①-②-|
⑤⑦口② |③-④-|
③①⑧口 |⑤-⑥-|
⑦⑤口④ |⑦-⑧-|
16
①③口① |①---|
口口②口 |②--③|
③口口口
口②口②

⑩口⑧口
口⑨口⑦
口⑥⑤④ |-④⑤⑥|
口口口口 |⑦⑧⑨⑩|
17
口③口④ |①-②-|
口口①口 |③④--|
②口口口
口口口①

口口⑤口
口⑥口⑤
⑦口⑥口 |⑤--⑥|
口⑦口口 |--⑦-|
18
口⑤口① |①②③④|
②口⑥口 |⑤⑥⑦⑧|
口⑦口③
④口⑧口

⑨口⑨口
⑪口口⑪
⑪口口⑪ |⑨-⑩-|
口⑩口⑩ |⑪---|
19
②③⑤① |①-②③|
口⑥⑦口 |-④⑤⑥|
口⑧①口 |⑦⑧|
④⑤口口

口⑩口⑨
⑩口口⑪
口口⑪⑨ |-⑨|
口口口口 |-⑩-⑪|
20
①④①③ |--①-|
口③口④ |②---|
口口⑤⑤ |③--④|
②口②口 |--⑤-|
21
①⑤③② |①-②③|
口⑦⑥口 |-④⑤⑥|
口①⑧口 |⑦⑧|
口口⑤④

⑨口⑩口
⑪口口⑩
⑨⑪口口 |-⑨|
口口口口 |-⑩-⑪|
22
⑤①口② |--①-|
⑤①④口 |②-③-|
口⑥口口 |④-⑤-|
③③口口 |⑥---|
23
口①③② |①-②③|
口⑤⑥口 |-④⑤⑥|
①⑦⑧口 |⑦⑧|
口口⑤④

⑨⑪⑩口
⑪口口⑩
⑨口口口 |-⑨|
口口口口 |-⑩-⑪|
24
口口口① |--①②|
⑦⑤②④ |③---|
⑦③⑥口 |④--⑤|
口口④口 |⑥-⑦-|

25
②③①口 |①-②③|
口⑥⑤口 |-④⑤⑥|
口⑧⑦① |⑦⑧|
④⑤口口

口⑩⑪⑨
⑩口口⑪
口口口⑨ |-⑨|
口口口口 |-⑩-⑪|
26
③口口口 |①-②-|
口口②口 |③-④-|
①口口口
口口④口

口口口口
口⑪⑩⑨
⑧⑦⑥⑤ |⑤⑥⑦⑧⑨⑩|
口⑪口口 |⑪---|
27
⑥⑪①① |①-②③|
②口⑦⑧ |④⑤-⑥|
口⑤④③ |⑦⑧⑨⑩|
⑪口⑨⑩ |--⑪-|
28
口口①① |①-②③|
③④⑤⑦ |④⑤-⑥|
⑥⑨口② |⑦⑧⑨⑩|
⑧口⑩口

口口⑪口
口口口口
口口口口
口口口⑪ |--⑪-|
29
①①⑪⑥ |①-②③|
⑧⑦口② |④⑤-⑥|
③④⑤⑫ |⑦⑧⑨⑩|
⑩⑨口口 |⑪-⑫-|
30
①口口④ |①-②-|
③②③① |③-④-|
口口①口
口③口口

⑧⑤口口
口⑦口⑦
⑤口⑥⑤ |⑤-⑥-|
口口⑦口 |⑦-⑧-|
31
口⑩①① |①-②-|
②⑤③⑤ |③④-⑤|
⑥⑦⑧⑨ |⑥⑦⑧⑨|
⑩④口口 |--⑩-|
32
口口①① |①-②-|
②⑤③⑤ |③④-⑤|
⑨⑧⑦⑥ |⑥⑦⑧⑨|
口④口口

口口⑩口
口口口口
口口口口
口口口⑩ |--⑩-|
33
①①口口 |①-②③|
③③口口 |-④-⑤|
⑤⑤口②
口口④口

口⑦⑦⑥
口口口口
口口口口 |--⑥-|
⑧口口⑧ |⑦-⑧-|
34
①⑦⑦③ |①-②-|
⑤①③⑤ |③-④-|
④③①② |⑤-⑥-|
⑥⑦⑦⑥ |⑦---|
35
①口口口 |①---|
口②②口 |②---|
口①①口
口口口②

口④⑥③
⑤口口⑥
口⑤口口 |③④-⑤|
口口口口 |--⑥-|
36
口④口口 |①②-③|
④口口口 |--④-|
①口②③
口口③口

⑤口口⑤
口⑥⑥⑦
⑧⑨口口 |⑤⑥-⑦|
口口口⑦ |⑧-⑨-|
37
口①①口 |①---|
②口口口 |②---|
口口口①
口②②口

⑤口⑥口
口⑦③口
口④口口 |③④-⑤|
口口口口 |--⑥⑦|
38
口口口口 |①-②|
口口口口
口口②①
口口②口

∨④口口 |③|
┃口口口 |④---|
③口口口
③━<口

口口口口
口口⑤口
⑥口口⑦ |⑤-⑥-|
⑥口口口 |⑦---|
39
口口口① |①---|
口②②口 |②---|
口①①口
②口口口

③⑥④口
⑥口口⑤
口口⑤口 |③④-⑤|
口口口口 |--⑥-|
40
口口④口 |①②-③|
口口口④ |--④-|
③②口①
口③口口

⑦口口⑥
口口口口
⑧⑦⑥⑧ |⑤-⑥-|
⑤口⑤口 |⑦-⑧-|
41
口①①口 |①---|
口┃口口
口┃口口
口∧口口

口②口口
口口③口 |②-③④|
口④口口
口口②②

⑤口口⑤
口口口┃
口口口┃ |⑤---|
口口口∧

口口口⑥
口⑦口口
口口⑧口
⑥⑥口口 |⑥-⑦⑧|
42
④①口⑤ |①-②③|
①口②口 |④-⑤-|
口③口口
口口口口

口⑫⑫口
口口口口
⑪口口⑩ |⑥⑦⑧⑨⑩⑪|
⑨⑧⑦⑥ |⑫---|
43
①口口口 |①-②-|
口③③② |③-④-|
④①①口
口口口③

口⑥口⑤
⑦口⑨⑧
口⑦口口 |⑤⑥-⑦|
口⑨口口 |⑧-⑨-|
44
①口⑤口 |①②-③|
口②口⑤ |④-⑤-|
④口口③
口口③口

⑧口口⑧
口⑨⑨口
口⑥⑦口 |⑥⑦-⑧|
⑩口口⑩ |⑨-⑩-|
45
口①①口 |①-②-|
③口④口 |③-④-|
②口口①
口③③口

⑤口口⑦
口⑥口⑨
口⑧口⑦ |⑤⑥-⑦|
口口⑨口 |⑧-⑨-|
46
③①口∨ |①-②-|
②④②┃ |③④-⑤|
①口口⑤
口口口口

⑨⑧⑧口
口口口口
口口口⑦ |⑥-⑦-|
⑥⑦口口 |⑧-⑨-|
47
口口口① |①-②-|
②③③口 |③-④-|
口①①④
③口口口

⑤口⑥口
⑧⑨口⑦
口口⑦口 |⑤⑥-⑦|
口口⑨口 |⑧-⑨-|
48
口⑤口① |①②-③|
⑤口②口 |④-⑤-|
③口口④
口③口口

⑦口口⑦
口⑧⑧口
⑨⑥⑥⑨ |⑥-⑦-|
口口口口 |⑧-⑨-|
49
口①①口 |①---|
口┃口口
口┃口口
口∧口口

口②口口
口口③口 |②-③④|
口④口口
口口②②

⑤口口⑤
口口口┃
口口口┃ |⑤---|
口口口∧

口口口⑥
口⑦口口
口口⑧口
⑥⑥口口 |⑥-⑦⑧|
50
④①口⑤ |①-②③|
①口②口 |④-⑤-|
口③口口
口口口口

口⑫⑫口
口口口口
⑪口口⑩ |⑥⑦⑧⑨⑩⑪|
⑨⑧⑦⑥ |⑫---|
51
口口口① |①-②-|
②口①④ |③-④⑤|
口①⑤口
口口③口

⑧口口⑦
口⑥⑨口
⑩口口口 |⑥-⑦-|
口口⑪口 |⑧⑨⑩⑪|
52
口①口口 |①-②③|
①③口口 |④-⑤-|
口⑤④②
⑤口口④

⑨⑧⑦⑥
⑪口口⑩
口口口口 |⑥⑦⑧⑨⑩⑪|
口⑫⑫口 |⑫---|
53
口口口口 |①---|
④①①④ |--②③|
④①①④ |④---|
口③②口

口⑤⑥口
口口口口
口口口口
口口口口 |--⑤⑥|
54
①口口② |①-②-|
口口口口 |③-④-|
③①②④
口③④口

⑨⑩⑪口
⑤⑥⑦⑧
口口⑪口 |⑤⑥⑦⑧⑨⑩|
口口口口 |⑪---|
55
口口口∨ |①-②-|
②口口┃ |③-|
口口口①
口③口口

口口∨口
口⑦┃口 |④⑤|
④⑤⑥④ |⑥-⑦-|
⑧口口口 |⑧-|

⑨⑩口口
口口口口
口口⑨口
口口口口 |⑨⑩|
56
口口①口 |①-②-|
③口④口 |③④-⑤|
②③口④
⑤口口口

口⑨⑨口
口⑦口⑥
口口口口 |-⑥⑦-|
口⑧⑧口 |⑧-⑨-|
57
②口口① |①-②-|
口口口┃ |③-|
口③口∧
口口口口

⑩⑥⑪④
④口口⑦ |④⑤|
⑫口⑨口 |⑥⑦⑧⑨|
⑧口⑬⑤ |⑩⑪⑫⑬|
58
口口口④ |①②③④|
⑤①口⑧ |⑤⑥⑦⑧|
口⑦口②
口③口⑥

⑨口⑨口
口⑩口口
⑪口⑪口 |⑨-⑩-|
口口口口 |⑪---|
59
口⑥口② |①-②③|
④口③口 |④⑤⑥⑦|
口⑦口⑤
口①①口

⑧口⑬口
口⑨⑮口
⑫口⑩口 |⑧⑨⑩⑪|
口⑭口⑪ |⑫⑬⑭⑮|
60
⑧口口⑦ |①②③④|
①⑤口口 |⑤⑥⑦⑧|
口口⑥②
③口④口

口⑨⑫口
⑪口⑩口
⑨⑫口口 |⑨-⑩-|
口⑪口⑩ |⑪-⑫-|
61
⑤⑤口① |①②③④|
口③⑧① |⑤⑥⑦⑧|
口口⑥④
口⑦②口

口口⑩口
⑪⑭口口
⑨⑫⑯⑮ |⑨⑩⑪⑫|
⑨口⑬⑬ |⑬⑭⑮⑯|
62
⑤⑤④① |①②③④|
⑧口②① |⑤⑥⑦⑧|
口⑥口口
口③口⑦

口口口⑬
口⑪口⑬
⑨口口⑩ |⑨⑩⑪⑫|
⑨口⑫口 |⑬---|
63
①①口口 |①-②③|
口⑥②⑥ |-④⑤-|
⑦③⑦④ |⑥--⑦|
口⑧⑤⑧ |--⑧-|
64
①①口口 |①-②③|
口⑥②⑥ |-④⑤-|
⑦③⑦④ |⑥--⑦|
口⑧⑤⑧ |--⑧-|
65
①①口口 |①-②③|
口⑥②⑥ |-④⑤-|
⑦③⑦④ |⑥--⑦|
口⑧⑤⑧ |--⑧-|
66
②⑦⑦① |①-②-|
④④③③ |③④⑤⑥|
⑥⑥⑤⑤ |⑦---|
口口口口 |----|
最終更新:2019年11月20日 18:25