アットウィキロゴ
rejoin
BEMANI Sound Team "HuΣeR feat.PON"

EXTREME

Level: 10.2
BPM: 135
Notes(hold): 853(8)

1
口口口口 |----|
口口口口 |----|
口口口口 |----|
口口口口 |----|
2
⑥④②口 |①-②③|
④⑦口② |-④⑤-|
口⑧⑨口 |⑥--⑦|
⑤①①③ |⑧-⑨-|
3
口①━< |①-②③|
口口③① |-④⑤-|
口口口⑤
口口④②

口⑧口⑥
口⑨⑧口
口⑦口口 |⑥--⑦|
口口口口 |--⑧⑨|
4
口⑧③⑥ |①-②③|
①口⑦① |-④⑤-|
┃⑤④口 |⑥--⑦|
∧口口② |--⑧-|
5
口口②② |①---|
③口口口 |②-③-|
口口口口
口口①①

口口口口
口口口口
⑦⑥⑤④ |④⑤⑥⑦----|
⑪⑩⑨⑧ |⑧⑨⑩⑪----|
6
③①③① |①-②③|
⑤口口口 |-④⑤-|
口④②口
口口口口

口口口口
口口⑨口
⑦口⑧口 |⑥--⑦|
口口⑥口 |⑧-⑨-|
7
>━①口 |①-②③|
①③口口 |-④⑤-|
⑤口口口
②④口口

⑥口⑧口
口⑧⑨口
口口⑦口 |⑥--⑦|
口口口口 |--⑧⑨|
8
口③口口 |①-②③|
①口口① |-④⑤-|
口④⑤┃
②口口∧

⑥口⑧口
口⑦口⑧
口口口口 |⑥--⑦|
口口口口 |--⑧-|
9
口②口② |①-②-|
口口口口 |③-④-|
①口①口
④④③③

口⑪口口
⑧⑦⑥⑤
口⑪⑩⑨ |⑤⑥⑦⑧⑨⑩|
口口口口 |⑪---|
10
②口口③ |①---|
口④口口 |②--③|
②口⑤③ |--④-|
口①①⑥ |⑤-⑥-|
11
口②③口 |①-②-|
口口口③ |③---|
①口口口
口口口口

口口口口
口④口口
⑤口④口 |④---|
口⑤口口 |⑤---|
12
②②口口 |①---|
口口口口 |②--③|
口③③口
口口①①

口口口⑦
④⑤⑥⑧
口口口⑨ |-④⑤⑥|
口口口⑩ |⑦⑧⑨⑩|
13
⑤⑥⑦⑦ |①②③④|
口口⑧⑧ |⑤-⑥-|
④②⑨⑨ |⑦-⑧-|
①③⑩⑩ |⑨-⑩-|
14
口⑥②④ |①---|
①口口② |②--③|
①口⑤口 |--④-|
③③口口 |⑤-⑥-|
15
口口口口 |①-②-|
②①②① |③-④-|
④③④③
口口口口

⑧口口⑦
口⑦⑧口
口口口口 |⑤-⑥-|
⑤⑥⑤⑥ |⑦-⑧-|
16
口口口口 |①---|
口口口② |②--③|
①①口②
口③③口

口④⑤⑥
口口口口
⑦⑧⑨⑩ |-④⑤⑥|
口口口口 |⑦⑧⑨⑩|
17
口口③口 |①-②-|
口①口② |③---|
口口口口
③③口口

④⑤口④
④⑤⑤口
⑤口⑤口 |④--⑤|
口口口⑤ |----|
18
⑧⑪⑦⑪ |①②③④|
⑨⑥⑩⑤ |⑤⑥⑦⑧|
⑨④⑩③ |⑨-⑩-|
②口①口 |⑪---|
19
②口⑤⑨ |①-②③|
③⑥⑦① |-④⑤⑥|
口⑧口⑨ |⑦⑧-⑨|
④⑤①口

口⑩口口
⑩口口⑪
口口⑪口
口口口口 |-⑩-⑪|
20
①④①③ |--①-|
口③口④ |②---|
口口⑤⑤ |③--④|
②口②口 |--⑤-|
21
①⑤③② |①-②③|
口⑦⑥口 |-④⑤⑥|
口①⑧口 |⑦⑧-⑨|
口口⑤④

⑨口⑩口
⑪口口⑩
⑨⑪口口
口口口口 |-⑩-⑪|
22
口①口② |--①-|
口①口┃ |②-③-|
口口口┃
③③口∧

⑤口口⑥
⑤口④口
口⑥口口 |④-⑤-|
口口口口 |⑥---|
23
口①③口 |①-②③|
口⑤⑥② |-④⑤⑥|
①⑦⑧口 |⑦⑧-⑨|
口口⑤④

⑨⑪⑩口
⑪口口⑩
⑨口口口
口口口口 |-⑩-⑪|
24
口口口① |--①②|
⑦⑤②④ |③---|
⑦③⑥口 |④--⑤|
口口④口 |⑥-⑦-|
25
②③①口 |①-②③|
口⑥⑤口 |-④⑤⑥|
口⑧⑦① |⑦⑧-⑨|
④⑤口口

口⑩⑪⑨
⑩口口⑪
口口口⑨
口口口口 |-⑩-⑪|
26
③口口口 |①-②-|
口口②口 |③-④-|
口口口口
①口口④

口口口口
⑪口口口
⑤⑥⑦⑧ |⑤⑥⑦⑧⑨⑩|
⑨⑩⑪口 |⑪---|
27
口口①① |①-②③|
口③⑤① |④⑤--|
口②④口
口口口口

⑦⑩⑩口
⑥口口口
口口口⑧ |⑥⑦⑧⑨|
口口口⑨ |--⑩-|
28
⑨⑩⑩⑤ |①-②③|
口⑧④① |④⑤--|
口⑦③口 |⑥⑦⑧⑨|
①⑥②口 |--⑩-|
29
⑨⑩⑩⑤ |①-②③|
口⑧④口 |④⑤--|
口③⑦口 |⑥⑦⑧⑨|
①⑥②① |--⑩-|
30
⑤⑤⑦⑦ |①-②-|
⑤④②⑦ |③-④-|
③⑥⑧① |⑤-⑥-|
③③①① |⑦-⑧-|
31
②④口口 |①-②③|
③③口口 |④⑤--|
⑤⑤口口
口①①口

⑩口⑥⑧
⑩口⑦⑦
口口⑨⑨ |⑥⑦⑧⑨|
口口口口 |--⑩-|
32
口②口口 |①-②③|
口口③口 |④⑤--|
口④口口
①①⑤⑤

口口⑥⑩
口⑦口⑩
口口⑧口 |⑥⑦⑧⑨|
⑨⑨口口 |--⑩-|
33
口口⑤口 |①-②③|
口④⑤口 |-④-⑤|
②口口③
口口①①

⑦⑦口口
口口口口
口口口口 |--⑥-|
⑥⑥⑧⑧ |⑦-⑧-|
34
口口②① |①②③④|
口口④③ |⑤⑥⑦⑧|
⑥⑤口口
⑧⑦口口

口口口⑪
⑩口口口
口口口口 |⑨-⑩-|
口口口⑨ |⑪---|
35
①①①口 |①---|
口①口口 |②---|
口②②②
口口②口

口⑤⑤口
④口③口
口口口⑥ |③④-⑤|
口口⑥口 |--⑥-|
36
⑤④口⑦ |①②-③|
④⑥③⑧ |--④-|
口③②口 |⑤⑥-⑦|
口口⑨① |⑧-⑨-|
37
②口②口 |①---|
②②①口 |②---|
②①②①
口①口①

口口口口
口口⑥口
口⑦口⑤ |③④-⑤|
④口③口 |--⑥⑦|
38
口⑤②⑤ |①-②③|
①④口③ |④-⑤-|
口口⑤口
④口④口

⑥口口口
⑧口口口
口口口⑥ |⑥-⑦-|
口⑦口⑥ |⑧---|
39
③②②口 |①---|
口口②② |②---|
①①口②
①口①口

口口口⑥
④口口口
口口口口 |③④-⑤|
口口⑤口 |--⑥-|
40
口口口口 |①②-③|
④④口口 |--④-|
②口③③
①口口口

口⑧⑥⑥
口口口口
口口⑧口 |⑤-⑥-|
⑦⑦⑤⑤ |⑦-⑧-|
41
⑥口②② |①---|
①①①① |②-③④|
⑥③⑧⑤ |⑤---|
口⑦④口 |⑥-⑦⑧|
42
口口口口 |①-②③|
⑤口口口 |④-⑤-|
口③口口
②口④①

⑨⑧⑦⑥
口⑪口⑩
口口口口 |⑥⑦⑧⑨⑩⑪|
⑫口口口 |⑫---|
43
口口口② |①---|
①口①② |②---|
①口①②
口①口②

口口口⑦
口口口口
⑤口⑥口 |③④-⑤|
③口④口 |⑥-⑦-|
44
③③口口 |①②-③|
②④①口 |④-⑤-|
⑤⑤口口
口口口口

口口⑦⑦
口口⑦⑦
口口口口 |⑥--⑦|
口口⑥⑥ |----|
45
①①口口 |①---|
①①口口 |②---|
口①②②
①①②口

口⑤口口
⑤口⑤③
口⑤口⑥ |③④-⑤|
口口口④ |--⑥-|
46
口口⑤② |①-②-|
口⑤口⑤ |③④-⑤|
①口⑤口
③④口口

⑥口口⑥
口口口口
口口口口 |----|
口口口口 |⑥---|
47
口①口口 |①---|
①②口② |②---|
口①②口
①②口口

③口④口
口口⑥口
⑤⑤口口 |③④-⑤|
口口⑦口 |⑥-⑦-|
48
⑤口④口 |①②-③|
口①口③ |④-⑤-|
口口②口
口口口口

口⑦口⑨
口口口口
⑥口⑧口 |⑥-⑦-|
口⑥口口 |⑧-⑨-|
49
①⑥口口 |①-②-|
⑤口③⑦ |③-④⑤|
④口口② |⑥-⑦-|
①口口口

⑨口口口
口⑩口口
口⑧口口
口口口口 |⑧-⑨⑩|
50
⑭⑮⑩⑪ |①②③④|
⑯⑬⑫⑨ |⑤⑥⑦⑧|
⑥⑦①③ |⑨⑩⑪⑫|
⑧⑤④② |⑬⑭⑮⑯|
51
口口④⑦ |①-②-|
口⑤口② |③-④⑤|
口口⑥口 |⑥-⑦-|
口①①③

口口口口
口口口口
⑩⑧口口
⑨⑪口口 |⑧⑨⑩⑪|
52
⑦⑥口口 |①②③④|
⑤⑧口口 |⑤⑥⑦⑧|
口口③②
口口①④

口口⑪⑩
口口⑨⑫
口口⑬⑬ |⑨⑩⑪⑫|
口口口口 |⑬---|
53
口口②② |①---|
①口②② |----|
①①②口 |②---|
①口①口

口口口口
口口口口
口口口口
③口口④ |--③④|
54
①口口② |①-②-|
口口口口 |③-④-|
③①②④
口③④口

⑨⑩⑪口
⑤⑥⑦⑧
口口⑪口 |⑤⑥⑦⑧⑨⑩|
口口口口 |⑪---|
55
口口口∨ |①-②-|
②口口┃ |③-|
口口口①
口③口口

口口∨口
口⑦┃口 |④⑤|
④⑤⑥④ |⑥-⑦-|
⑧口口口 |⑧-|

⑨⑩口口
口口口口
口口⑨口
口口口口 |⑨⑩|
56
口口①口 |①-②-|
③口④口 |③④-⑤|
②③口④
⑤口口口

口⑨⑨口
口⑦口⑥
口口口口 |-⑥⑦-|
口⑧⑧口 |⑧-⑨-|
57
②口口① |①-②-|
口口口┃ |③-|
口③口∧
口口口口

⑩⑥⑪④
④口口⑦ |④⑤|
⑫口⑨口 |⑥⑦⑧⑨|
⑧口⑬⑤ |⑩⑪⑫⑬|
58
口口口④ |①②③④|
⑤①口⑧ |⑤⑥⑦⑧|
口⑦口②
口③口⑥

⑨口⑨口
口⑩口口
⑪口⑪口 |⑨-⑩-|
口口口口 |⑪---|
59
口⑥口② |①-②③|
④口③口 |④⑤⑥⑦|
口⑦口⑤
口①①口

⑧口⑬口
口⑨⑮口
⑫口⑩口 |⑧⑨⑩⑪|
口⑭口⑪ |⑫⑬⑭⑮|
60
⑧口口⑦ |①②③④|
①⑤口口 |⑤⑥⑦⑧|
口口⑥②
③口④口

口⑨⑫口
⑪口⑩口
⑨⑫口口 |⑨-⑩-|
口⑪口⑩ |⑪-⑫-|
61
⑤⑤口① |①②③④|
口③⑧① |⑤⑥⑦⑧|
口口⑥④
口⑦②口

口口⑩口
⑪⑭口口
⑨⑫⑯⑮ |⑨⑩⑪⑫|
⑨口⑬⑬ |⑬⑭⑮⑯|
62
⑤⑤④① |①②③④|
⑧口②① |⑤⑥⑦⑧|
口⑥口口
口③口⑦

口口口⑬
口⑪口⑬
⑨口口⑩ |⑨⑩⑪⑫|
⑨口⑫口 |⑬---|
63
①①①口 |①-②③|
口⑥②⑥ |-④⑤-|
⑦③⑦④ |⑥--⑦|
口⑧⑤⑧ |--⑧-|
64
①①①口 |①-②③|
口⑥②⑥ |-④⑤-|
⑦③⑦④ |⑥--⑦|
口⑧⑤⑧ |--⑧-|
65
①①①口 |①-②③|
口口②口 |-④⑤-|
口③口④
口口⑤口

口口⑦⑦
⑥⑥口口
口口口口 |⑥--⑦|
⑧⑧口口 |--⑧-|
66
③①口口 |①-②-|
④⑦⑥⑤ |③④⑤⑥|
⑤⑥⑦④ |⑦---|
口口②③ |----|
最終更新:2019年11月20日 17:36